&title=ギターと孤独と蒼い惑星
&artist=結束バンド
&first=2.033
&des=kessoku band
&lv_5=13
&inote_5=(193)
{4}
1,
2,
3,
4/5-7[8:1],
{8}
1,
2,
3,
8h[8:2]/4,,
2,
3,
4/6h[8:2],,
1,
1,
7,
7,
3,
3-1[8:1]/5,,
6,
7,
8,
1/5-2[8:1],,
8-4[8:1],,
2,,
1,
1,
6,
6,
{16}
3,
4,
3,
4,
{8}
3,
52,
1,
8,
7-4[8:1],,
2-6[8:1],,
8,,
7,
7,
4,
4,
{16}
6,
2,
6,
2,
{8}
6,
35,
1,
6x/4x,
7,
5x/2x,
3,
8x/4x,
7,
2xq6[8:1],
2,
8xp4[8:1],
8,
1xq5[8:1],
1,
7x,
7,
{16}
6h[8:14],,,
5,,,,
4,,
4,,,,,
2,,,,
8,,,,
3,,,,
B1,,
B2,,,,
{8}
74,,
2,
2h[8:2]/5,,
6,
7,
8,
1/2-4[8:1],,
1,,
8/2-4[8:1],,
7,,
6h[8:2]/1h[8:2],,,
83,
8h[8:2]/3h[8:2],,,
25,
2h[8:2]/5h[8:2],,,
73,
7h[8:2]/3h[8:2],,,
6,
6h[8:4],,
E2,,
E3,,
4h[8:2],,
5h[8:2],,
6h[8:2],,
7h[8:2],,
1>4[8:1],,
8,,
8<5[8:1],,
1,,
2,,
4h[8:2]/5h[8:2],,,,
82,
{16}
6,
5,
7x,,
3,
4,
{8}
2b-5[8:1],,
1,
8,
7<4[8:1],,
1,
2,
3h[8:2],,
4h[8:2],,
5h[8:2],,
6<8[8:1],,,,
2>4[8:1],
1,
2,,
7-3[8:1],
8,
7,,
1q5[8:1],
8,
1,,
8-6-4[8:4]*-4[8:4],,,,,,,,
3-1[8:1],,
4,,
3-1[8:1]/5,,
6,,
3-1[8:1]/7,,
8-4[8:1],,
2-6[8:1],,
7-3[8:1],,
1w5[8:1],,
1,,,
7,
73,
1,
1/5-8[8:1],,
2h[8:4],,,
E4,
E5,,,
7,
7h[8:3],,,
E1,
E2,,,
2,
2h[8:2],,
3h[8:2],,
5h[8:2],,
6h[8:2],,
8>4[8:4],,,
7,
7h[8:2],,,,
1h[8:4],,,
B5,
B6,,,
8,
8h[8:4],,,
E4,
E3,,,
4,
4h[8:2],,
5h[8:2],,
2h[8:2],,
8h[8:2],,
3h[8:2],,
1>1[8:2],,
C1,,,,
3h[8:2]/4,,
5,,
3h[8:2]/5,,
6,,
3h[8:2]/6,,
7,,
3h[8:2]/7,,
8,,
15,,
74,,
53,,
82,,
1>5[8:2],,
5<1[8:2],,
1>5[8:2],,
5<1[8:2],,
1>5[8:3],,,,,,
7,
7,
8,
8,
5h[8:2],,
2,,
17,
6,
25,
{16}
3,
4,
3,
4,
3,,
6,
5,
6,
7,
6,,
2,
1,
2,,
4,
3,
4,
3,
4,,
8,
7,
8,
7,
1,
8,
1,
8,
2bw6[48#32:1],,,,
B8,,,,
C1,,,,
B4,,,,
{8}
2bx,,
8bw4[8:1],,
8bx,,
62,,
81,,
35,,
74,,
6/2-6[8:1],,
1-5[8:1]/2,,
8-4[8:1]/1,,
7-3[8:1]/8,,
7/1-6[8:1]*-4[8:1]b,,
1x,,,
5,
5,
2,
2,
7p3[8:1],
8,
7,,
1q5[8:1],
6,
1,,
8p4[8:1],
2,
8,,
3-7[8:1],
3,
5-8[8:1],
5,
2,
2,
{16}
3,
4,
3,,
6,
5,
6,,
1,
8,
1,
8,
1,,
3,
5,
3,,
6,
4,
6,,
7,
3,
7,
3,
7,,,,
{8}
1-5[8:1]/2-5[8:1]b,
3,,,
7-4[8:1]b/8-4[8:1],
6,,,
12,,
34,,
65,,
7/8>3[8:1],,
7,,
4<7[8:1],,
8,,
1-3-5-7-1[8:2]b,,
C1f,,,,
3h[8:2]/4,,
5,,
6x/1x,
2,
8x/3x,
7,
6x/4x,
2,
5x/3x,
8,
1x-5[8:1],
1,
7x<4[8:1],
7,
2x-6[8:1],
2,
8x,
8,
3x/5x,
1,
6x/4x,
7,
2x/5x,
3,
8x/4x,
7,
2x/6x,
26,
3x/5x,
35,
4xw8[8:1],,
C1,,
6h[8:12]/2,
2,
3,
3,
4,
4,
5,
5,
8h[8:3],,,,,,
B6/C1/B2,,
3,
4,
5,
6h[8:2],,
8h[8:2],,
4-2[8:1],,
7-5[8:1],,
1,,
83,
83,,
4,
4,
6,
6-3[8:1],,
1-5[8:1],,
7,,
62,,
8/4>1[8:1],,
7,
6,,
84,
7,
6,
5/3-1[8:1],,
5-7[8:1],,,,
84,,
6/3>8[8:1],,
5,
6,,
{12}
2,
4,
2,
7,
5,
7,
3,
1,
3,
6,
8,
6,
{8}
24,
35,
64,
7/5v2[8:1],,
8,
8,,
{16}
6h[16:21],,,
4,,,,
3,,
3,,,,
2,,,,
1,,,,
4,,,,,
72,,
81,,
5h[16:14]/C1h[16:14],,,,,,,,,,,,,,,,,,
{12}
3,
4,
3,
6,
5,
6,
2,
4,
2,
7,
5,
7,
2,
4,
3,
7,
5,
6,
1,
4,
3,
8,
5,
6,
E3,
E4,
E2,
E7,
E6,
E8,
3,
4,
3,
6,
5,
6,
E3,
E4,
E2,
E7,
E6,
E8,
{16}
C1hf[8:17],,,,,,,,,,,,,,,,,,,,,,,,,,,,
,,,,
{16}
E7,
E6,
E5,
