&title=Bagpipe
&artist=A-Moe
&first=0.376
&des_5=HarKIn
&lv_5=13+
&des=HarKIn
&clock_count=4
&inote_5=(140)
{1},
{1}5b-8[4:2],
{1}5x-8[4:2],
{1}5x^8[4:2],
{1}5hx[2:1],
{1}4x-1[4:2],
{1}4x-1[4:2],
{1}4x^1[4:2],
{8}4hx[4:2],,,,,7,6,5,
{8}4-8[4:2],4bh[8:5],,,,,,,
{8},8h[2:1],1,2,3,4h[8:1],,7h[2:1],
{8}8,1,2,3h[4:1],,E8/B8,,E8/B8,
{8},2h[2:1],1,8,7,6h[8:1],,1h[2:1],
{8}8,7,6,5h[4:1],,E2/B1,,E2/B1,
{8},7h[2:1],8x,1,2,3h[8:1],8x,8h[2:1],
{8}1,2,3x,4h[4:1],,E2/B1,,E8/B7,
{8},2h[2:1],1x,8,7,6h[4:1],1x,1h[2:1],
{8}8,7,6,5h[4:1],,4-1[8:1],,4x,
{8},8bh[4:1],1^4[4:1],2,8,1x-5[4:1],,4,
{8}3,2,1,8x-4[4:1],,A7,,A7,
{8},1h[4:1],8^5[4:1],7,1,8x-4[4:1],,5,
{8}6,7,8,1-5[4:1],,A2,,A2,
{8},3h[4:1],4^7[4:1],5,3,4x-8[4:1],,7,
{8}6,5-1[4:1],8x,1-5[4:1],,A2,,A3,
{8},6h[4:1],5^2[4:1],4,6,5x-1[4:1],,2,
{8}3,4,5x,6x-2[8:1],,6x/2x,{16}1,1,1,,
{24}8b/2b,,,,,,7h[4:1],,,8,1,2,3h[8:1],,,{16}5,3,6h[4:1],,,,
{24}4h[4:1],,,,,,6h[4:1],,,3,2,1,8h[8:1],,,6,7,8,1h[4:1],,,,,,
{24}4h[4:1],,,,,,7h[4:1],,,8,1,2,3h[8:1],,,{16}5,3,6h[4:1],,,,
{24}4h[4:1],,,,,,7h[4:1],,,2,3,4,5h[8:1],,,7,6,5,4h[4:1],,,,,,
{8}8x^3[8:1],,7-3[8:1]/8,,5-1[8:1],,5x/4x,,
{8}2-6[8:1],,2/3^6[8:1],,1-5[8:1],,1x/8x,,
{8}6-2[8:1],,5^2[8:1]/6,,8-4[8:1],,8x/1x,,
{8}2-6[8:1],,1-5[8:1],,8-4[8:1],,8b,,
{16}3x,5,5,,4,6,6,,1,7,7,,2,8,8,,
{16}3,4,3,,6,5,6,,2,3,2,,7,6,7,,
{32}5bh[2:1]/1,2,3,4,,6,7,8,1,2,3,4,,6,7,8,1,2,3,4,5,6,7,8,1,2,3,4,5,6,7,8,
{8}1^4[4:1],,4^7[4:1],,7^2[8:1],,2,,
{16}6,4,4,,5,3,3,,7,2,2,,6,1,1,,
{16}7,8,7,,2,1,2,,6,7,6,,3,2,3,,
{8}6h[4:1],1,5h[4:1],8,4h[4:1],7,3h[4:1],8,
{16}1,8,7,,1,8,7,,1-6[8:1],,6-1[8:1],,1-4[8:1],,4-1[8:1],,
{8},,,,{16}8,8,1,,7,7,1,,
{16}3,4,3,,5,4,5,,6,5,6,,3,4,2,,
{32}4bh[2:1]/8,7,6,5,,3,2,1,8,7,6,5,,3,2,1,8,7,6,5,4,3,2,1,8,7,6,5,4,3,2,1,
{8}8-4[4:1],,4^1[4:1],,1^6[8:1],,4,,
{16}4,4,4,,5,5,5,,3,4,3,,6,5,6,,
{16}1,2,3,,8,1,2,,7,8,1,,6,5,6,,
{8}3h[4:1],7,4h[4:1],8,5h[4:1],1,6h[4:1],2,
{8}1x-5[4:3],,,,,,,,
{24}1bh[4:3],,,,,,,,,E7,E6,E5,E4,,,E3,E4,E5,E6,,,,,,
{24}1b^4[8:1]/7b,,,,,,7x/1x,,,7,6,5,4x-8[8:1]/1hx[8:1],,,7,6,5,4x/2x-6[8:1],,,,,,
{24}8^5[8:1]/2,,,,,,8x/2x,,,2,3,4,5x-1[8:1]/8hx[8:1],,,2,3,4,5x/7x-3[8:1],,,,,,
{24}7/4^1[8:1],,,,,,6x/4x,,,6,7,8,1x-5[8:1]/4hx[8:1],,,6,7,8,1x/3x-7[8:1],,,,,,
{24}3/5^8[8:1],,,,,,5x/3x,,,3,2,1,8x-4[8:1]/5hx[8:1],,,3,2,1,8x,,,,,,
{24}7^2[8:1],,,,,,7x/3x,,,3,4,5,6x^1[8:1],,,3,4,5,6hx[4:1],,,,,,
{24}2^5[8:1],,,,,,6x/2x,,,6,7,8,1x^4[8:1],,,6,7,8,1hx[4:1],,,,,,
{24}5-1[8:1],,,,,,7x/5x,,,7,6,5,4x,,,1/4,2/5,3/6,4x-8[8:1]/7x-3[8:1],,,,,,
{8}7x/4x^1[8:1],,4x,,7/8b,6b/5,4b/3,1/2b,
{4}8b^3[8:1],7-3[8:1]/8x,7x/5-1[12:1],5b/4x,
{4}3^6[8:1],2x-6[8:1]/3x,8-4[12:1]/2x,8b/1x,
{4}3-8[8:1],3x/1-6[8:1],1x/4-8[12:1],4b/5x,
{4}7-4[8:1],1-6[8:1]/7x,1x/5-1[12:1],5b/4x,
{4}1-5[8:1],8-3[8:1]/1x,8x^5[12:1]/1^4[12:1],8bx/1b,
{4}7-4[8:1],7x/5-1[8:1],5x^2[12:1]/6^1[12:1],5bx/6b,
{4}2-5[8:1],8b-4[8:1]/2x,8^5[12:1]/1^4b[12:1],8bx/1b,
{4}7-3[8:1],7x/8-4[8:1],8x/1-5[8:1],1b/2x-6b[8:1],
