&title=oath sign -TV ver.-
&artist=LiSA
&first=0.1
&des=maimaisic
&lv_1=
&des_1=maimaisic
&inote_1=
&lv_2=
&des_2=maimaisic
&inote_2=
&lv_3=
&des_3=maimaisic
&inote_3=
&lv_4=
&des_4=maimaisic
&inote_4=(152)
{4},,,,
{4}2pp1[4:5],,,,8h[4:2],,,,
{4}7V53[4:2],,4,,2V86[4:2],,7,,
{4}5pp4[4:5],,,,3h[4:2],,,,
{4}2qq7[4:3],,4,,6h[16:1],,{8},4-8[8:1],,,
{4}6,6,65,6,8,8,82,8,34,3,13,3,
37,{8}7,56,4,35,2,{16}8,8,
{4}1,1,16,1,3,3,35,3,75,7,78,{8}6,6h[8:7],
{4}5,5,5,{8}7,8>3[8:1]/6,
,,5h[4:1],,4,5,7,6/8>3[8:1],
,,6h[4:1],,4,5,7,8/6>3[8:1],
,,2h[4:1],,5,4,2,3-5[8:1]/1,
,5,7,8/6-4[8:1],,3,1,8V64[8:1]/2,
,,3h[4:1],,1,2,7,8V24[8:1]/6,
,,7h[4:1],,5,6,8,1q6[8:1]/7p2[8:1],
,,,,4,5,3,2q5[8:2]/6,,7,8,1qq6[8:3],,4,3,2,
{8}1h[8:3],,,,,,,2,2h[8:3],,,,,3s7[4:5],3,6,
{8}6h[8:3],,,,,,,5,5h[8:3],,,8,8-4[8:1],,,,
{8}3,3,1,1,8,8,6,6,
{8}75,4,5/3,1,42,5,6/4,{16}7,7,
{8}5>2[8:1],8,7,6<1[8:1],,2,3,4qq8[8:3],
,7,7,6,6,5,5h[8:1],8b,,26,62,2-6[8:1]*-6[8:1]/6,62,,,{16}4,5,
{8}3b-1[8:1],7-3[8:1],3,7-1[8:1]*-5[8:1],,7b,,{16}2,3,
{8}4-8[8:1],7-3[8:1],{24}4b,,,{8}7b<4[8:1]*>2[8:1],,,,,
5b/6,7h[8:1],2-8[8:1],6h[8:1],2,5h[8:1],1-5[8:1],6h[8:1],
1<6[8:1],,{24}1b>4[8:1],,,,,,{8}1b/5bpp1[8:3],,5b,,
{8}4,3-5[8:1],2,13,,7-4[8:1],8,17,,2-6[8:1],1,28,,45,45,{16}3,4,
{8}1-5[8:1],1,8-6[8:1],8,{24}4,3,2,{8}1>4[8:1],,{8}1/6h[4:1],,{16}5,,47,,8,8,
{16}3,4,2,4,3h[4:1],,5,4,
{8}6-8[8:1],3-5[8:1],6,3-1[8:1],1-5[8:1],3,8,{16}8,7,
{8}6V48[8:2],4-8[8:1],{24}3,,,{8}1<6[8:1]*>4[8:1],,1b,,,
3b/4,2h[8:1],6-4[8:1],3h[8:1],6,2h[8:1],3-7[8:1],1h[8:1],
3bqq5[8:4],,{4}3b/6pp5[4:1],6b,,
{16}1h[8:1],,8,2,1h[8:1],,3h[4:1],,,,4,3,5h[8:1],,8h[4:1],,,,7,1,8h[8:1],,4h[4:1],,,,6,,75,,3,4,{8}2-5[8:1],2,1v6[8:1],1,8v3[8:1],8,7-4[8:1],7,{24},,,{8}
,{16}25,,3,4,1,,47,,6-4[16:11],5-1[8:5],8,,,,,,,,,,,,,,,,,,
3h[8:1],,4,,6,,57,,18,,2,2,4-8[8:1],,,,
{8}4/6b<1[8:1],,{24}6/3b,,,{8}5bp1[8:1],,8b/5,7b-3[8:1],,
8b-2[8:1]/7,,{24}8/4b,5,6,{8}7bpp5[8:19],,{24}4b,3,2,{8}1bqq4[4:8],,,
E
&lv_5=12+
&des_5=maimaisic
&inote_5=(152)
{16},,,,
,,,,
,,,,
,,,,
{16}2pp1[4:5],,,,
,,,,
,,,,
,,,,
{16}8h[4:2],,,,
,,,,
,,,,
,,,,
{16}7V53[4:2],,,,
,,,,
4,,,,
,,,,
{16}2V86[4:2],,,,
,,,,
7,,,,
,,,,
{16}5pp4[4:5],,,,
,,,,
,,,,
,,,,
{16}3h[4:2],,,,
,,,,
,,,,
,,,,
{16}2qq7[4:3],,,,
,,,,
4,,,,
,,,,
{16}6h[16:1],,,,
,,,,
,,4-8[8:1],,
,,,,
{16}6,,,,
6,,,,
65,,,,
6,,,,
{16}81,,,,
8,,,,
82,,,,
8,,,,
{16}34,,,,
3,,,,
13,,,,
3,,,,
{16}37,,,,
7,,56,,
4,,35,,
2,,8,8,
{16}1,,,,
1,,,,
16,,,,
1,,,,
{16}34,,,,
3,,,,
35,,,,
3,,,,
{16}75,,,,
7,,,,
78,,,,
6qq1[8:4],,6h[8:7],,
{16},,,,
,,,,
,,,,
7,,8>3[8:1]/6,,
{16},,,,
5h[4:1],,,,
4,,5,,
7,,6/8>3[8:1],,
{16},,,,
6h[4:1],,,,
4,,5,,
7,,8/6>3[8:1],,
{16},,,,
2h[4:1],,,,
1,,8,,
2,,3-5[8:1]/1,,
{16},,5,,
7,,8/6-4[8:1],,
,,3,,
1,,8V64[8:1]/2,,
{16},,,,
3h[4:1],,,,
1,,2,,
7,,8V24[8:1]/6,,
{16},,,,
7h[4:1],,,,
5,,6,,
8,,1q6[8:1]/7p2[8:1],,
{16},,,,
,,,,
4,,5,,
3,,2-5[8:1]/6,,
{16},,7,,
8,,1qq6[8:3],,
,,4,,
3,,2,,
{16}1V35[8:6],,,,
,,,,
,,,,
,,,,
{16}7V16[8:4],,,,
,,,,
,,,,
3s7[8:5],,,,
{16}2h[8:3],,,,
,,,,
,,,,
8>4[8:2]*<4[8:2],,,,
{16},,,,
,,,,
1w5[8:1],,,,
,,,,
{16}3,,3,,
1,,1,,
8,,8,,
6,,6,,
{16}75,,4,,
5/3,,1,,
42,,5,,
6/4,,7,7,
{16}5>2[8:1],,8,,
7,,6>3[8:1],,
,,1,,
8,,7pp2[8:3],,
{16},,6,,
6,,5,,
5,,4,,
4,,3bqq6[8:3]*pp8[8:3],,
{16},,,,
,,,,
,,,,
,,4,5,
{16}3-1[8:1],,6-4[8:1],,
3,,6-8[8:1],,
,,6b,,
,,1,2,
{16}3-5[8:1],,8-4[8:1],,
3,,8>3[8:1]*<5[8:1],,
,,8b,,
,,,,
{16}43,,2>5[8:1],,
7,,2<7[8:1],,
,,26,,
5-1[8:1],,4,,
{16}3-6[8:1]/5,,,,
3/7b-4[8:1],,,,
7b/1bp4[8:1]*q6[8:1],,,,
1b,,,,
{16}3/7-3[8:1],,,,
2,,2h[4:1],,
,,1<6[8:1],,
2,,13,,
{16},,3>8[8:1],,
4,,3/5,,
,,6,,
57,,,,
{16}4-8[8:1],,3,,
4/2>5[8:1],,1<6[8:1],,
2,,1pp6[8:3]*p7[8:3],,
,,1b,,
{16},,,,
,,,,
8,1,7,2,
6,3,5,4,
{16}6-8[8:1],,3-5[8:1],,
6,,3-1[8:1],,
1-5[8:1],,3,,
8,,8,7,
{16}6-4[8:1],,4-8[8:1],,
3,,1<6[8:1]*>4[8:1],,
,,1b,,
,,,,
{16}56,,7>2[8:1],,
2,,7<4[8:1],,
,,7/3,,
2-6[8:1],,1,,
{16}8pp7[8:3]/2,,,,
8/4bpp3[8:3],,,,
,,,,
,,,,
{16}1h[8:1],,8,2,
1h[8:1],,3h[4:1],,
,,4,3,
5h[8:1],,8h[4:1],,
{16},,7,1,
8h[8:1],,4h[4:1],,
,,6,,
75,,3,4,
{16}2-5[8:1],,2,,
1v6[8:1],,1,,
8v3[8:1],,8,,
7-4[8:1],,7,,
{16},,,,
25,,3,4,
1,,47,,
6-4[16:11],5-1[8:5],8,,
{16},,,,
,,,,
,,,,
,,,,
{16}3V51[4:1]/6V42[4:1],,,,
,,,,
,,,,
7bp3[8:1]/8b,,,,
{16}2>5[8:1],,1<6[8:1],,
2,,1w5[8:1],,
,,1b,,
,,,,
{16}3-7[8:1],,6-4[8:1],,
3,,6qq1[8:19],,
{24},,,1b,2,3,
{16}4pp2[4:8],,,,
{16}4b,,
E
&lv_6=
&des_6=maimaisic
&inote_6=
&lv_7=
&des_7=maimaisic
&inote_7=
