&title=flicker
&artist=ariiol
&first=0.025
&des=kkjjmz
&lv_5=13+
&inote_5=(150){4}2pp7[8:5],,{2}6,
8<4[8:3],{4}3q7[4:1],E2,
1h[2:1],E5,7h[2:1],E5,
3h[2:1],E2,8h[2:1],E6,
{2}7qq2[8:5],3,
1>5[8:3],{4}6q2[4:1],6,
3h[2:1],E5,6h[2:1],E8,
1h[2:1],E3,5h[2:1],{8}E8,E1,
{4}E2,{8}3h[4:1],4,5x,6,3,4,
5x/6xh[4:1],3,4,5,6x/4x,{16}7,5,{8}8p4[4:1],4,
{4}B2,2p6[4:1],B4,4p8[4:1],
B6,6p2[4:1],B8,{8}8,7,
{4}6/B1,{8}6h[4:1],5,4x,3,6,5,
4x/3xh[4:1],6,5,4,3x/5x,{16}2,4,{8}1q5[4:1],5,
{4}B7,7q3[4:1],B5,5q1[4:1],
B3,3q7[4:1],B1,{8}1,2,
{4}3/4-8[16:3],{8}5,6,,1/7,{4}2/6-2-8[4:1],
{8}3,4V26[4:1],,7,{4}8,C,
4x/5x<8[16:3],{8}1,2>5[16:3],,{16}A7,A8,{4}A1,
{8}4-6[8:1],{16}3,6,{8}4,8h[8:3],{16}E7,E6,E5,E4,{8}E3,7,
{4}6x/5x-1[16:3],{8}4,3,,2/8,{4}7/3-7-1[4:1],
{8}6,5V73[4:1],,2,{4}1,{16}2,4,{8}3,
4x/6x-1[16:3],5,4,3,2-4[8:1],1,8,7,
{4}6/E5,{8}4/3,2h[4:1],{24}8,7,6,5,4,3,2x,1x,8x,7x,6x,5x,
{4}3x/4xh[4:1],{32}E3,E2,{16}E1,{8},{4}E7h[2:1],{32}E5,E4,{16}E3,{8},{4}E3h[2:1],
{32}E5,E6,{16}E7,{8},{4}E8h[2:1],{32}E6,E5,{16}E4,{8},{4}E4h[2:1],
{32}E6,E7,{16}E8,{8},{4}E1h[2:1],{32}E7,E6,{16}E5,{8},{4}E5h[2:1],
{32}E7,E8,{16}E1,{8},{4}Cf,E7/B7/B6/E3/B2/B3,
{8}1,{16}7,8,{8}7h[8:1],5,8,{16}2,1,{8}2h[8:1],4,
5,{16}6,5,{8}7h[8:1],8,5,{16}3,4,{8}2h[8:1],1,
8/2,{16}4,6,{8}5-8[8:1]*-7[8:1],C,{4}5x-2[8:1]*-3[8:1],5x-1[8:1],
5x,8/C,2/E6,7/B3,
{16}1,2,3,4,{8}5qq5[4:1],6,7/5<5[8:3],{4},{8}5q1[16:3],
6h[8:3],{4},{16}E2,E3,E4,E5,E6,E7,E8,E1,{8}E2,
{4}4x/2x>7[4:1],7>4[4:1],4<1[4:1],1>6[4:1],
5,E8h[2:1],C,E4f,
{16}8,7,6,5,{8}4pp4[4:1],3,2/4>4[8:3],{4},{8}4p8[16:3],
3h[8:3],{4},{16}E8,E7,E6,E5,E4,E3,E2,E1,{8}E8,
{4}5x/7x<2[4:1],2p5[4:1],5>1[4:1],1<5[4:1],
4,E4h[2:1],E6h[4:1],E5,
{8}1,8,7,6,5>1[32:7],8,7,6,
{4}5p8[4:1],{8}8,7,{2}6v7[16:3]*v4[16:3],
{8}8x,1,2,3,4<8[32:7],1,2,3,
{4}4q1[4:1],{8}1,2,{2}3v8[16:3]*v2[16:3],
{8}1x,2,3,4,5>1[4:1],6,7,8,
7,6,5,4,3/7,{24}6,3,5,{8}4,B7h[8:7]/B8h[8:7]/E8h[8:7],
{4}D6,A4,D3,A1,
Cf/B3/E3/B4/B5/B6/E7,D7,C,D3,
7b/1b,{16}2-5[8:1],5,{8}3,2,1,4/3,5/6,
{16}7,1,{8}8-5-2[4:1],{16}1,7,{8}8,A5,{24}8,7,6,{8}3<6[8:1]/5v8[8:1],B6,
{4}3x/5x,{16}7-4[8:1],4,{8}6,7,8,5/6,4/3,
{16}2,8,{8}1-4-7[4:1],{16}8,2,{8}1,A4,{16}1,1,8v3[8:1]*<5[8:1],2,{8}6,
{4}8x,{16}2-8[8:1],4,{8}3-7[8:1],2,3,4,4,
{16}5>2[8:1],4,{8}6,7/5,8,8/1,{24}2,3,4,{8}5-1[8:1],7,
{4}5x/4x,{16}7-1[8:1],5,{8}6-2[8:1],7,6,5,5,
{16}4<7[8:1],5,{8}3,4/2,1h[4:1],{16}8,7,{8}6h[4:1],{16}4-8[8:1],3,{8}2,
{4}4/5,{16}2-6[8:1],8,{8}1-7[8:1],2,1,3,5/6,
{16}7,1,{8}8,{16}3,5,{8}4,{24}1/2,8,7,6,5,4,{8}3<6[8:1]/1v4[8:1],B2,
{4}3x/1x,{16}7-3[8:1],1,{8}8-2[8:1],7,8,6,4/3,
{16}2,8,{8}1,{16}6-8[8:1],4,{8}5,6,{16}1,1,8v3[8:1]*<5[8:1],2,{8}6,
{4}8x,{16}8-4[8:1],1,{8}2-5[8:1],8,2,6,6h[8:1],
{16}3,5,{8}4,{16}7,1,{8}8,{24}7/1,2,3,4,5,6,7-3[8:1],8,1,2,3,4,
{4}7/5,{16}1-5[8:1],8,{8}7-4[8:1],1,7,3,3,
{16}6,4,{8}5,3,4/7,{16}2,5,{8}4,{16}2-6[8:1],8,{8}1,
2,B7h[8:3],E5,A3,E2h[2:1],E1,B3,A5,
E7h[2:1],E5,A3,A2,E1h[2:1],E8,E3,E6,
{4}E5,{16}6x,5,{8}7,{16}5,6,{8}C,6/E3,5/E2,
{16}3x,4,{8}2,{16}4,3,{8}C,2h[16:3],{16}5,5,1-4[8:1],7,{8}8,
2/1,B2h[8:3],E5,A6,E8h[2:1],E1,B6,A4,
E3h[2:1],E5,A6,A7,E1h[2:1],E2,E7,E4,
{4}E5,{16}3x,4,{8}2,{16}4,3,{8}C,3/E7,4/E8,
{16}6x,5,{8}7,{16}5,6,{8}C,{16}2,5,{8}4,{16}8-5[8:1],2,{8}1,
{4}7/8,2p5[4:1],5>1[4:1],{8}A6,A7,
{4}A8,{8}3-8[8:1],B6,{4}3-5<6-8[4:1],{8}E2,E3,
{4}E4,{16}2,2,{8}4,{16}6,6,{8}4,1,1,
{16}7,7,{8}5,{16}3,3,{8}5,6h[16:1]/2h[16:1],7h[16:1]/1h[16:1],{4}8-5[8:1]*-3[8:1],
8,7q4[4:1],4<8[4:1],{8}A3,A2,
{4}A1,{8}6-1[8:1],B3,{4}6-4>3-1[4:1],{8}E8,E7,
{4}E6,{16}7,7,{8}5,{16}3,3,{8}5,8,8,
{16}2,2,{8}4,{16}6,6,{8}4,{16}3,7,2,8,{4}1w5[8:1],
{1}1,
{2},{8}4,{16}6,4,{8}5,3,
{4}2>5[16:3],1,6q3[4:1],5,
4<7[16:3],3,{2}8pp5[8:3],
{4}4h[8:1],4/3h[8:1],7h[8:1],6/4h[8:1],
6h[8:1],7/5h[8:1],{8}3,{16}8,1,{4}7,
6/5>2[16:3],B6,1p4[4:1],E3,
2>5[16:3],E1,6<2[4:1],2<6[4:1],
B3/B4/E4,2h[8:1],6/5h[8:1],5h[8:1],
4/3h[8:1],2/1h[8:1],{8}8,{16}1,7,{4}8-3[16:3],
6,6v1[16:3],4,4<7[16:3],
2,{8}2-5-2[16:5],1,{4}8,{8}8,7,
{1}4bqq2qq8qq6qq4[16:27]/6b<6[16:27],
,E7h[1:1]/E3h[1:1],
{48}A6/D2,{96}A5,D1,{48}A4,A3/D8,
