&title=灰かぶり(灰姑娘)
&artist=十明
&first=-0.04
&des=Kanipoi
&lv_5=13+
&inote_5=(144)
{1},,
{2},
{8}2h[4:1]/5,,5,3,5/3h[4:1],,5,4,5/4h[4:1],,6,,47,,26,,
7h[4:1]/4,,4,6,4/6h[4:1],,4,5,4/5h[4:1],,3,,52,,73,,
6h[4:1]/1,,1,7,1/7h[4:1],,1,8,1/8h[4:1],,2,,83,1,2,8,8h[4:1]/1,,3,3h[4:1]/7,,5,5h[4:1]/4,,2V46[4:1],,6V82[4:1]*-2[4:1],,,,,,
{8}24,3,5,4,65,6h[4:1],,4,7-3[8:1],3-5[8:1],,,1q5[8:1],2,3,,,
1,7,7,5,6h[4:1],,3,5,6,7-5[8:1]/1-5[8:1],2,1-3[8:1]/7-3[8:1],,,,
,6,4,5,34,3h[4:1],,5,2-6[8:1],6-4[8:1],,,8p4[8:1],7,6,,,
8,8,2,7-3[8:1],1-5[8:1],7,1,6h[2:1],,,,4,,,,
{16}5/3h[8:1],,,4x,5/3h[8:1],,,,3h[8:1]/7-4[8:1],,,,7/3h[8:1],,,,
4/6h[8:1],,,5x,4/6h[8:1],,,,6h[8:1]/2^5[8:1],,,,2/6h[8:1],,,,
5/7h[8:1],,,6x,5/7h[8:1],,,,7h[8:1]/3v1[8:1],,,,3/7h[8:1],,,,
4/2h[8:1],,,3x,4/2h[8:1],,,,2h[8:1]/6,,{24}7x,1x,7x,1x,,,8,,,
{16}1/3h[8:1],,,2x,1/3h[8:1],,,,3h[8:1]/7q4[8:1],,,,7/3h[8:1],,,,
4/6h[8:1],,,5x,4/6h[8:1],,,,6h[8:1]/2,,,,2/6,,3,,8/3h[4:1],,,,7,,2/6h[4:1],,,,3,,8/4h[4:1],,,,
{4}8-4[8:1],2-6[8:1],7-4[8:1],3-5[8:1],{32}E6,B5,,,,,,,
{4},6h[2:1],,
{32}E2,B2,,,,,,,
{4},3h[2:1],,
{32}E8,B8,,,,,,,
{4},7h[2:1],,5h[2:1],,4h[2:1],,2h[2:1],,E5/B5,,
6h[2:1]/4,,B2/E3,,2h[2:1]/5,,B6/E7,,7h[2:1]/3,,5h[2:1],,4qq7-2[4:3],,,,5<5[4:3],,,,6^7^8^1^2^3^4^5^6-4-7-3-8-2b[4:7],,,,,,,,
{8}4h[4:1],,5,3,5/3h[4:1],,4,2,4/2h[4:1],,3,1,38,,26,,
4/5h[4:1],,4,6,4/6h[4:1],,5,7,4,7^4[8:1],,3q7[8:1],,8p3[8:1],,2,
2-5[8:1],,2h[8:1],,7-4[8:1]/1,,7h[8:1],,3/1-5[8:1],,1h[8:1],,8-4[8:1]/6,,8h[8:1],,
5^2[8:1]*^8[8:1],,5,,1-5[8:1],6-2[8:1],1-3^5-7[4:3],6,,,,,,,
{16}8-4b[8:1],,,,8b/3^6[8:1],,2h[8:1],,,,,,2,,1,,7/1v6[8:1]*-7[8:1],,,,1v4[8:1]*-3[8:1],,,,1,,,,
6,,57,,3,,1/5h[8:1],,8-3[8:1],,3-5[8:1],,8,,7,,1-6[8:1],,2-5[8:1],,1,,2,,7v4[8:1],,2-7[8:1],,7>5[4:1],,2,,,,,,
7-4[8:1],,,,7b/2-6[8:1],,,,2b/8-4[8:1],,,,8b,,2>1[4:1],,5,,2,,,,5V71-3[4:1],,3,,5,,,,,,
1,,,,2-5[8:1]/6-1[8:1],,,,26,,,,7^4[8:1]/3^8[8:1],,,,37,,,,5,,1,8,2h[8:1],,6,,1,7,1,7,
{32}1-5b[8:1],2x,3x,4x,5x,6x,7x,8x,
{16}1bx/6x^3[8:1],,7h[8:1],,,,,,7,,8,,2/8v3[8:1]*-2[8:1],,,,8v5[8:1]*-6[8:1],,,,8,,,,
3,,24,,6,,8/4h[8:1],,1-6[8:1],,6-4[8:1],,1,,2,,8-3[8:1],,7-4[8:1],,8,,7,,2v5[8:1],,7-2[8:1],,2<4[4:1],,7,,,,,,
2-5[8:1],,,,2/7-3[8:1],,,,7/1v4[8:1],,,,1,,7qq5[8:1],,5x^8[8:1],,7,,,,4qq1[4:1],,6,,4pp7[4:1],,,,,,,,2,,
4,,7,8,7,,2/6,,5,,2,1,2,,8h[8:5]/1-7-2-6-3-5b[2:1],,
{4},,,
{16}8^5b[8:1],,2,,8b/4v7[8:1],,1,1,2-5[8:1],,3,,8-4[8:1]/2,,6,,1-6[8:1]*-7[8:1]/8,,,,1-4[8:1]*-3[8:1],,,,1,,,,
6,,47,,3,,1/5h[8:1],,8^3[8:1],,3^6[8:1],,8,,6,,8-6[8:1],,5-3[8:1],,8,
,5,,5x-7[8:1],,1v4[8:1],,5v8[8:1]/3,,1-3[8:1],,5,,1,,
{16}5^8b[8:1],,,,5b/1v6[8:1],,4,4,3-8[8:1],,2,,5-1[8:1]/3,,7,,45,,2,,6qq4[8:1],,4q1[8:1]*<8[8:1],,6,,,,,,
2h[4:1],,3,,4,,5>7-3[2:1],,6,,7,,,,,,,,,,
8,,64,,2,4,3,,7,,28,,3-8[8:1],5,4,,37,,
6h[8:1],,1,,3h[8:1]/5,,8,,47,,2h[4:1],,,,6,,1-4[8:1],,4^6[8:1],,,,,,8V24[16:3],,7,,6,,,,
7h[8:1],,5,,2h[8:1]/8,,4,,18,,6h[4:1],,,,
3h[4:1],,5,,6,,7^5[8:1]/1p5[8:1],,2,,7q3[8:1]/1^3[8:1],,,,,,,,
3h[8:1]/5,,8,,6h[8:1]/4,,1,,52,,7h[4:1],,,,3,,8-5[8:1],,5^3[8:1],,,,,,1V75[16:3],,2,,3,,,,
3h[4:1]/6h[4:3],,,,,,4,,4h[2:1],,,,,,5,,5h[1024:1],,
