&title=水鏡ノ琉金姫
&artist=Shiena
&first=0
&des_5=姫ノ騎士
&lv_5=14
&inote_5=(184)
{1},
{2}2bq5<4[2:7]/6h[1:1],,,{8}E1,,,B7,,,,,,,,,,,,,8x,,,7x>6[8:15],
{4},,,B6,B5,B4,B3,B2,{1}1xz5qq4[2:3]*s5pp6[2:3],,
{8}6x,,7h[8:3],,,5,6/4,,3-1[8:1],,8,,6-4[8:1],,1,,3,,2h[8:3],,,4,3/5,,6^8[8:1],,1,,3^5[8:1],,8,,
{8}7,6,5/3,2,1/4h[4:1],,2,3,4/6,7,8h[2:1]/5,,6-2[8:1],,,,
{8}7b^4[8:1],,,3b^8[8:1],,,6b^3[8:1],,,1bh[8:7],{4},,,
{16}Cf,,,,7x^6-1-5[8:3],8x,7x,8x,,,,,,,3h[4:1],,,,,,2-8-3-5[8:3],4,2,4,,,,,,,7h[8:7],,,,6<3[16:5],,6,,,,,,,,,,4h[2:1],,,,2,,1,,8,,7,,6,,5-1[8:1],,,,3b,,,,2^4-7-1[8:3],8,2,8,,,,,,,6xh[4:1],,,,,,5-2-4-7[8:3],2,5,2,,,,,,,,,3^8V24[8:3],,,,8,,,,6,,,,7^2V86[8:3],,,,2,,,,4,,,,5,4,3,2,1b/5b,,,,
{16}3x/8x,,,,2x^3-8-4[8:3],1x,2x,1x,,,,,,,6h[4:1],,,,,,7-1-6-4[8:3],5,7,5,,,,,,,2h[8:7],,,,3>6[16:5],,3,,,,,,,,,,5h[2:1],,,,7,,8,,1,,2,,3,,4-8[8:1],,,,6b,,,,7-3-5-8[8:3],1,7,1,,,,,,,2-8^5-3[8:3],,,,7,,,,,,1-4[8:1]*-6[8:1],,,,1bx,,,,7-4[8:1],,,7x,,,1x,,3^8[8:1],,,3x,,,7x,,
{4}6^1[8:1],2-5[8:1]/6,7-3[8:1]/2,1w5[8:1]/7,
{1}1bV35V71[2:7]/Cf,,,{4},,,C,
{8}7,6,5-1[8:1],4,3,,2,3,4-8[8:1],5,6,,B7h[4:1]/B6h[4:1]/E7h[4:1],,,,
{8}3,2,1-5[8:1],8,7,,6,7,8-4[8:1],1,2,,B3h[4:1]/B2h[4:1]/E3h[4:1],,,,
{1}8<1[4:13]/Cf,{8},,,,B2,,,B3,,,,,,,,,{4}B6,B7,B8,Cf,
{8}2^5[4:1],,5^8[4:1],,8^3[4:1],,C,,7^4[4:1],,4^1[4:1],,1^6[4:1],,C,,{16}3bh,,,3bh/5bh,,,3-7[8:1]/5bh,,,,3/8b-4[8:1],,,,2/8b-2-6-4[4:3],,
{1},B1/B2/E2f,,
{1}3qq4[2:3],B6/B7,
{1}7h[8:3]/5h[4:1],6h[8:3]/4h[4:1],5h[4:1]/3h[8:3],2h[8:3]/4^7[2:1],
{8}1bpp4[2:1],1,8,8,,7,6,,5pp8[2:1],5,3,3,,2,2,,3qq8[2:1],3,7,7,,5,5,,4pp7[2:1],4,2,2,,{16}8,1,2,3,4x,,
{12}8x,7x,6x,4x,3x,2x,7x,6,5,3x,2,1,
{12}8-4-2[16:3]/6,,7,7,,,8-4-6[16:3],,1,1,,,
{8}2,2,3/7,3/7,{32}4,5,6,7,8,1,2,3,4,5,6,7,8,1,2,3,
{4}4qq1[8:3]/8qq5[8:3],,,Cf,
{8}2b^7[8:1],,6/2,5,4V61[4:1],,1/4,2,3v8[8:1],7-4[8:1],3,7,1,{24}1x,2,3,4/5,,,6,,,
{8}7/1-5[8:1],2,1/3-8[8:1],,3-5[8:1],5,3,7,8V64[4:1],,8/3,2,1,{16}2,4,3,,5,,
{8}6bV84[4:1],8,1,2,3V51[4:1],5,6,7,8^3[8:1]*^5[8:1],,8bV24[4:1],,6,7,8,,7/5,6,5/4-8[8:1],3,4/2,,3,2,1/8-4[8:1],7,6/8,,
{16}3-7[8:1],5,2,4,1,,,,
{8}7bx^2[8:1]/8,,3/7,4-1[8:1],,4-7[8:1]/6,,4/2-6-3-5[8:3],,6x,7,8,1,{24}8x,7,6,5/4,,,3,,,
{8}2/8-4[8:1],7,8/6<2V85[2:1],,5,4,3,2x,1x>4[8:1],,1/6,{16}6x,7x,
{8}8xv5[8:1],4-1[8:1],8,4,
{16}6b^3[8:1],,,2,6x,,1,,8^3[8:1],,,4,8x,,6,,5^8[8:1],,,4,5x,,3,,2-6[8:1],,,1,2x,,8,,
{8}7x/5,7x,4/7x-3[8:1],7x,1/7x,,2/4x,4x,4x-8[8:1]/6,4x,4x/1,,
{16}1,2,3,4,5/1,6,7,8,
{4}1b/Cf,
{8},,,,7^4[4:1],,1,,2h[8:5],,4,5,6,,A7h[4:1]/B7h[16:5]/E7h[8:3]/B6h[16:7],,2-5V31[8:3],,,,,8xh[2:1],,7,6-8-5-1[8:3],4,3xh[8:3],,,,
{8}4V25[4:1],,8,7,6,,8V61[4:1],,4,3,2,,8^5[8:1]/3^8[8:1],,8/3,,E6h[4:1]/B5h[16:5]/E5h[8:3]/B6h[16:7],,7-1-3-8[8:3],,,,,5h[8:5],,,6x,,{24}6x-2[8:1],7,8,1,2,3,4/6xb,,,,,,1w5[8:1],,,,,,1b,,,,,,
{8}7/3,7/3,2/6,2/6,{16}1,5,1,5,2,6,2,6,3,7,3,7,{32}4,5,6,7,8,1,2,3,
{16}4b/Cf,,,,{8}8x-6-2-5[8:3],8x,,,,4xh[2:1],,2,1-3-8-4[8:3],7,6,6,5,,
{8}7V15[4:1],7,4,3,2,,1V37[4:1],1,7,6,5,4,2-5[8:1]/3-8[8:1],,,,7b/2b,,{16}1,8,1,8,1h[2:1],,,,4x,,4x,,
{16}4bx,5,6,7,5bx,6,7,8,6bx,7,8,1,7bx,8,1,2,
{8}8b^5[8:1]/3,,,2b^7[8:1],,,4bpp8[4:3]*qq8[4:3],,,,,,,,,,1b^4[8:1],,,6b^1[8:1],,,3b^6[8:1],,,8b^3[8:1],,,4b-8[8:1],,4b,,
{16}6-4[8:1]/1,,,2,6,,1,,2-4[8:1],,,8,2,,7,,6-1[8:1],,,4,6,,2,,3-6[8:1],,,5,3,,7,,
{8}8-6[8:1],1,8-4[8:1]/2,2,8/3,,1-3[8:1]/7,7,1-6[8:1]/6,6,1b/5h[4:1],,
{24}7,8,1,2,3,4,5/8,1-5[12:1],2,3,4,5q7[24:73],
{1}1bq3[1:3]b/Cf,,,{4},,{8}E4,B4,B5,E6,
E
