&title=fairy stage
&artist=K2 SOUND
&first=0.02
&des=克劳恩皮丝
&des_6=克劳恩皮丝
&lv_6=13
&inote_6=(128){4},,,,3b/5b,
4,4,4,
4/6,5,5-7[8:1],1,
4/6,5,5,{8}5,4qq5[8:3],
,5,,6h[8:3],,4b,{4}8b,
5/3h[4:1],5,4/6h[4:1],4,
7/3h[4:1],7,{2}6h[4:1]/4-2[8:1],
{4}5/3h[4:1],4,4/6h[4:1],{8}4,5-3[8:1],
,6-8[8:1],,1w5[8:1],{2},{8}2b/5b,
{16}3,4,,3,{8}4,2>5[8:1],1,{4}8h[8:1],
{8}7/4,{16}6,5,,6,{8}5,7<4[8:1],8,{4}1,
{8}2/5,{16}3,4,,3,{8}4,2>5[8:1],1,5,8,
7h[8:3],5,,3h[8:3],,5b,{4}1b,
{8}5/2,{16}3,4,,6,{8}5,7-4[8:1],4-8[8:1],1,3,
2,{16}6,5,,3,{8}4,2<4[4:1],5,{4}8,
{8}7,{16}2,5,,3,{8}4,2>5[8:1],5-1[8:1],8,6,
7,5-7[8:1],,1w5[8:1],{2},{8}4>6[2:1],
{4},,,{8}5,
{2}5h[4:3],2-4[8:1],
{8}5<3[2:1],{4},,,{8}4,
4h[8:5],6,,7,,8,,4,
{16}3<1[2:1],{8},{16}8h[16:9],{4},,,5-3[8:1],
6,5-3[8:1],{8}6,7,
{16}8>6[2:1],{8},{16}2h[16:9],{4},,,4-6[8:1],
3,4-6[8:1],3,
{8}1bqq6[8:3],2,3,4h[4:1],{4},4-6[8:1],
3-7[8:1],4-6[8:1],3-7[8:1],7,
{8}8pp4[8:3],7,6,5h[4:1],{4},5-3[8:1],
6-2[8:1],5-3[8:1],6V48[4:1],2,
{8}1qq5[8:3],2,3,4h[4:1],{4},4<7[8:1],
3>8[8:1],4<7[8:1],3>8[8:1],7,
{8}8pp3[8:3],7,6,5h[4:1],{4},5<1[8:1],
2,4h[4:1],{2}5w1[8:1],
{8}4b/7b,{16}6,5,,3,{8}4,2-8[8:1],6-4[8:1],2,6,
3,{16}6,5,,3,{8}4,2-5[8:1]*-6[8:1],{16}1/7,,{4},{8}4/6,
{16}3,4,,6,{8}4,7-5[8:1],3>8[8:1],7,3,
7,{16}3,4,,6,{8}4,8z4[8:1]*v5[8:1],6/2,{4},{8}3/5,
{16}1,5h[8:1],,1,{8}5h[8:1],8>3[8:1],4<7[8:1],8,4,
3,{16}8,4h[8:1],,8,{8}4h[8:1],7<4[8:1]*V53[8:1],8/2,{4},{8}6/4,
{16}8,4h[8:1],,8,{8}4h[8:1],1<6[8:1],5>2[8:1],1,5,
{16}8h[8:1],{8},{16}7h[8:1]/3h[8:1],{8},2/6,{16}1h[16:1],3h[16:1],5h[16:1],7h[16:1],1h[16:1],3h[16:1],5h[16:1],7h[16:1],
{8}1b,{16}6,4,{8}8,5/6,3/7-4[8:1],4q8[8:1],7,2,
1q5[8:1],3,1/7,6,8<5[8:1]*>3[8:1],4,{4}8,
{8}6/2h[8:1],{16}5,3,{8}8h[8:1],{16}4,6,{8}1-5[8:1],5,{4}1,
{8}6V48[16:3],4,{4}1h[16:1],{8}3V52[16:3],5,{4}7h[16:1],
{8}8b,{16}3,5,{8}1,4/3,6/2-5[8:1],5p1[8:1],2,7,
8p4[8:1],6,8/2,3,1>4[8:1]*<6[8:1],5,{4}1,
{8}3/7h[8:1],{16}4,6,{8}1h[8:1],{16}5,3,{8}8-4[8:1],4,{4}8,
{8}3V51[16:3],5,{4}8h[16:1],{8}6V47[16:3],4,{4}2h[16:1],
{8}1b,{16}6,5,{8}8,5/6h[4:1],8>3[8:1],4<7[8:1],8,4,
{16}1q5[8:1],5,{8}3,1/8,6,{16}8<5[8:1]*>3[8:1],3,{8}5,{4}8,
{8}6/2h[8:1],{16}4,3,{8}8h[8:1],{16}5,6,{8}1>4[8:1]*<6[8:1],3/7,{4}1,
{8}6V48[16:3],4,{16}1,1,{8},3V52[16:3],5,{16}7,7,{8},8b,
{16}3,4,{8}1,4/3h[4:1],1<6[8:1],5>2[8:1],1,5,
8p4[8:1],{16}6,4,{8}8,{16}3,7,{8}1>4[8:1]*<6[8:1],4/6,{4}1,
{8}3/7h[8:1],{16}5,6,{8}1h[8:1],{16}4,3,{8}8<5[8:1]*>3[8:1],6/2,{4}8,
{8}3V51[16:3],5,{16}8,8,{8},6V47[16:3],4,{16}2,2,{8},1,
{16}7,5,{8}6,{16}2,4,{4}3h[4:1],5w1[4:1],
{2},{16}1h[16:1],3h[16:1],5h[16:1],7h[16:1],2h[16:1],4h[16:1],6h[16:1],8h[16:1],
{1}1b-5[8:5],
