&title=Dawnbreaker
&artist=鸣潮先约电台/Will Stetson
&first=0.14
&des=CupLid
&des_5=
&lv_5=14
&inote_5=(200){4},,,,,,,,,,3/4h[4:1],
2,
{8}5,5h[4:1],,3h[4:1],,7h[4:1],,4h[4:1],
,6,{4}6/5,7/4h[4:1],6,
{8}3,5/2h[4:1],,6h[4:1],,4h[4:1],,8h[4:1],
,5,{4}7/3,6/5h[4:1],7,
{8}4,4h[4:1],,6h[4:1],,2h[4:1],,5h[4:1],
,3,{4}3/4,2/5h[4:1],3,
{8}6,4/7h[4:1],,3h[4:1],,5h[4:1],,2h[4:1],
,4,{4}4-8b[8:1],{32}1b,Cf,,,,,,,{4}3,
{8}6/4,6/4,5,3-8[8:1],,7-4[8:1],,1h[4:1],
,5,{4}7/3,8/2,6,
{8}3/5,3/5,4,6-1[8:1],,2-5[8:1],,8h[4:1],
,4,{4}2/6,1/7h[4:1],3,
{8}6/4,4-8b[8:1],6,7-5[8:1],,1-3[8:1],,6,
,5,{4}7/3,{8}5/4,{16}3,4,{8}3,4/5,
{16}6,5,{8}6,4/5,{16}2,4,{8}2,4/5,{16}7,5,{8}7,
{2}8/Cfh[2:1],{8}7b,7qq1[8:5],,,{4}2,
{8}3,3,,4/7,,6/5,
{4}8-4[8:1],8/3,{8}2,2pp8[8:5],,7,
,6,{4}6,5,{8}5/2,6,
{4}7/1-5[8:1],1/8,{8}6,6-1[8:1],,2,
3,4,{4}1/5,{8}3,3-8[8:1],,7,
6,5,{4}2/6<2<6[2:1],3,5,
3,{8}1/5,4/2h[4:1],{16},,6,5,{4}7h[4:1],
{8}4,2/6,{16},,3,4,{8}2,7/1h[4:3],{4}7,
6,{8}5,5-1[8:1],,2-4[8:1],,8,
{4}7,2/5,{8}2/8h[4:3],2,,3,
,4,{4}4-8[8:1],7-5[8:1],{8}1,2,
3,7/4,,6,1/7,2-5[8:1],8,6h[4:1],
,4,{4}3/7,{8}8/2,7-4[8:1],1,3h[4:1],
,5,2/6,3,{2}4/7pp4b[8:3],
{8},3,2,1b/5h[4:1],{16},,3,4,{4}2bh[4:1],
{8}5,7b/3,{16},,6,5,{8}7b,4/8h[8:3],{4}3,
3V15[4:1],{8}6,6,,7,{4}4/7-4[8:1],
{8}3v8[8:1],3,,7,,5/2h[8:3],,6,
6V84[4:1],3,,1,{4}1,5/2-5[8:1],
{8}6,6,7,8/4,{16}7,5,{8}6-1[8:1],4,2h[4:1],
,8,3,1/5,{16}2,4,{8}3-8[8:1],5,7h[4:1],
,1,6/2,4h[8:5]/5<3[8:3],,,,,,,{4}3/5,
7b/E5f,{8}2,2b/B5f,
,8b/B4f,,6h[8:5]/2h[8:5],,,,,,,{4}5/4qq8[4:3],
7,{8}6,6,
,5,,1/7-3-5[8:5],,,{4}3,
{8}2,2,,1,{4}1/6V48[8:3],{8}3,3,
,1,,7h[8:15]/2-4v5-7-5v4-2b[8:13],,,,,,,,,,,,,,,,,7/1,
{16}2,4,{8}3,{16}6,5,
{8}7,{16}3,4,{8}2,{16}6,5,{8}8,{16}3,5,{8}1,6,
{32}2,3,4,5,6,7,8,1,2,3,4,5,6,7,8,1,{4}2/6bh,5bh,
4bh,3bh/E1f,7/4-8[8:1],4/7-5[8:1],
7/2-6[8:1],2/7-4-6-1[8:3],{8}3,2-4[8:1],1,2-6[8:1],
,2/8-4[8:1],,8/3,,1,{4}5/2-4[8:1],
2/7-3[8:1],7/2-5-3-8[8:3],{8}6,7-5[8:1],8,7-3[8:1],
,7/1-5[8:1],,1/6,,7,{4}4/7-4[8:1],
7/3v8[8:1],{8}3/5,6,7/1,{16}2,4,{8}3h[8:1],{16}6,5,
{8}7h[8:1],{16}3,4,2,5,3,4,{8}2b,{16}6,5,{8}7h[8:1],{16}1,8,
{8}2h[8:1],{16}4,3,{8}5h[8:1],1,2/6,{16}3,4,{8}2h[8:1],{16}8,1,
{8}7h[8:1],{16}5,6,{8}4h[8:1],8,{4}3/8b-4[8:1],8/2-6[8:1],
2/5-7[8:1],5/2v4>8[8:3],{8}8,7,6,5-7[8:1],
,5/2-5[8:1],,2/8,{4}1-5[8:1],1/7-3[8:1],
7/4-2[8:1],4/7v5<1[8:3],{8}1,2,3,4-2[8:1],
,4/7,8-4[8:1],1,{4}2,{8}3/5,{16}3,4,
{8}2,{16}6,5,{8}7,{16}3,4,{8}2,{16}6,5,{8}7,8/1,
{16}2,3,4,5,8,7,6,5,{8}4/2,{16}3,4,{8}2,{16}7,5,
{8}6,4,5/3,2,{16}1/7,6,5,4,1,2,3,4,
5/6,7,8,1,4,3,2,1,{8}8/6,5,3,5/2-7[8:1],
,2b/6-3[8:1],,6b/1h[8:7],,,{4}2x-6b[8:1],
{8},,,,7/Cf,{16}6,5,{8}6,8,
{16}3,4,{8}3,1,{16}7,5,{8}6,7/1,{16}2,4,{8}3,
2/8,{16}6,5,{8}7,4/8b-4b[8:3],,,,,,,{4}3q8<7[10:29]*<4p7[1:3],
,,,,,,,,,,,,,,,7pp6[4:3],
,,,3pp2[4:3],
,,,7pp4[4:3],
,,,3V51[4:3],
,,8,
8V63[4:3],,,2,
2V48[4:3],,,7,
7V52[4:3],,,1,
1>7[4:3],,8h[4:1],
,8,1,2/4,
{8}3,4,2,4,{4}3,{8}2,2,
8,8,{4}1,8,7/5,
{8}6,5,7,5,{4}6,{8}7,7,
1,1,{4}6h[2:3]/Cf,,,,,,E5,
,3h[8:1]/4h[4:1],2,6h[8:1]/5h[4:1],
7,3bh[8:1]/4h[4:1],1,6bh[8:1]/5h[4:1],
8h[4:5],Ch[1:1],,,,,,B6/E7,
,5/3,,B2/E3,
,4/6,,B6/E7,
,5/3,,B2/E3,
,7/4,5/6h[2:1],2,
{8}3,4/7h[4:1],,3h[4:1],,5h[4:1],,1h[4:1],
,5,4/2,3,4/6,7,8/2,3,
4/7,6,5/2,{16}3,4,{8}2,{16}6,5,{8}7,{16}3,8,
2,5,3,7,{4}1b-6b[8:1],1/7-3[8:1],7/5-2b[8:1],
5/7v5<2[8:3],{8}1,2,3,4-8b[8:1],,4/7-4[8:1],
,7/1,2,3,{4}8/2-6[8:1],2/4-7b[8:1],
4/2v4>7[8:3],{8}8,7,6,5-1b[8:1],,5/1<4[8:1],
,D3f/A2/B2/B3/E3/A3,,,1/7,{16}6,5,{8}8,{16}2,4,
{8}3,{16}6,5,{8}7,{16}1,4,{8}3h[8:1],{16}6,5,{8}7h[8:1],{16}1,4,
{8}2h[8:1],{16}8,4,{8}6h[8:1],3,{16}3,4,{8}2,5/3,{16}6,5,
7,5,{8}8,{16}7/3b,6,5,4,3/7b,2,1,8,7/3b,2/6,1/5,4/8,
3/7,2,1,8,{4}7/3bh[4:1],{8}6,1-3<4[8:1]*>2-4[8:1],,1b<8-6[8:1]*-7<6[8:1],
,1b,,5,{2}5pp1[8:3]*qq1[8:3],
{4},7/3,{8}6h[8:1],5,4h[8:1],5,
6,7h[8:1]/3h[8:1],,7h[8:1]/3h[8:1],,2h[8:1]/6h[8:1],,7/3,
{2}4/8-4[8:1],{8}3h[8:1],4,5h[8:1],4,
3,2h[8:1]/6h[8:1],,2h[8:1]/6h[8:1],,7h[8:1]/3h[8:1],,4/8,
{4}4/8-4[8:1],1b-5[8:1],{8}7-5[8:1],8-4[8:1],7,8>3[8:1],
,3/8<5[8:1],,8/4w8[8:1],,4,,6/2,
{4}3/5,{24}7b/3,6,5,4,3,2,1,8,7,6/2b,3,4,5,6,7,8,1,2,
3/6b,5,4,3,2,1,8,7,6,5/1b,2,3,4,5,6,7,8,1,{4}2/A6/D6f/A5/E6/B5/B6,
E
