&title=季節は次々死んでいく
&artist=amazarashi
&first=-0.05
&des=HY
&lv_5=13
&des_5=HY
&inote_5=
(181){4},{8},,,,,,,,,,,,B7,
B6,
B5,B4,E8,E7,E6,E5,A7,A6,
A5,A4,{4}D7h[4:1],{8},,B2,B3,
B4,B5,E2,E3,E4,E5,A2,A3,
A4,A5,{4}D3h[4:1],,5/B3,
5,5,5,5/4,
4,4,4,6/4,
6,6/3,3,6/3,
{8}7/2,7/2,8/1,8/1,7/2,{16}3,6,{4}3b>8pp4[2:3],
,5h[4:1],,6,
5-7[4:1],5x,,7b<4pp8[2:3],
,1h[4:1],,2,
1-3[4:1],1x,,7/2-5[8:1],
2/8,6/1-4[8:1],1/7,2/7-4[8:1],
7/1,3/8-5[8:1],8/2,8/2-5[8:1],
2/7-3[8:1],7/1-5[8:1],1/6-1[8:1],6/3,
4bx,{8}3/5,6/2,{4}7/1,3h[2:1]/6b>3q7b[4:11],
,,,2h[2:1],
,,,1xh[2:1],
,,,1,
{8},,E2,B8,E7,B5,{4}3<6p2[4:11],
,,,7h[2:1],
,,,8xh[2:1],
,,,8,
{8}8,8,E1,B2,C,E4,{4}6,
{16}6/4,,,5,{4}6h[4:1],4,6,
{16}6/4,,,5,{4}4h[4:1],6,3,
{16}3/5,,,4,{4}3h[4:1],5,3,
{16}3/5,,,4,{4}5h[4:1],3,6,
{16}7/1,,,8,{4}7h[4:1],1,7,
{16}7/1,,,8,{4}1h[4:1],7,2,
{16}2/8,,,1,{4}2h[4:1],8,2,
{16}2/8,,,1,{4}8h[4:1],{8}2,3,{4}4/7b<4[4:1],
{16}7,,,1,{4}1>4[4:1],1/8,5<8[4:1],
{16}5,,,2,{4}2>5[4:1],2/6,7b-5[4:1],
5-3[4:1],3-7[4:1],1,1h[4:1],
{16}8,,,8,{8}2,2,1/7,7,{4}5/1b>4[4:1],
{16}1,,,8,{4}8<5[4:1],8/2,4>1[4:1],
{16}4,,,7,{4}7<4[4:1],7/3,1b>4[4:1],
4<7[4:1],7-3[4:1],8,8h[4:1],
{16}1,,,1,{8}7,7,8/2,2,{4}8/1v4[4:1],
{8}7,B7,,,{4}B4/B3/8v5[4:1],{8}8,B1/E2,
{16},,,3,{8}4,4,5/3,5,{4}2/6V48[4:1],
{8}1,B2,,,{4}1V73[4:1],{8}6,B5/E6,
{16},,,5,{8}4,4,3/5,3,{4}8/1q5[4:1],
{8}7,B7,,,{4}B4/B3/8p4[4:1],{8}8,B1/E2,
{16},,,3,{8}4,4,5/3,3,{4}2/5<8[4:1],
{8}1,E2,,,{4}1>4[4:1],{8}6,E6/B5,
{16},,,6,{8}5,7,{4}7/2,Cf/8<5[4:3],
,,,1>4[4:3],
,,,8q5[4:3],
,,,1p4[4:3],
,,,7bV15[4:3],
,,,3V15[4:3],
,,,8V64[4:3],
,,,1q5[2:1],
,,,5bx/6h[4:3],
5,5,5,6,
6,6/5h[4:1],6,7,
7,7,7,5/6h[4:1],
{8}5,5,B6,B5,B4,B3,{4}1b-7v5[4:3],
,2,3,4>1V38[4:3],
,5,6,7b-4[8:1],
8-3[8:1],6v5[8:1],2v1[8:1],{8}7,7,
8,8,4,5/8,4/7,6x,{4}4b-8[8:1],
{8}7,6,{4}5b-2[8:1],{8}8,7,{4}6>3[4:1],
3>8[4:1],8<8b[4:3],{2}Cf,
{4},6b,{8},7,{4}7h[4:1],
1-5[8:1],1/8<5[8:1],8/1>4[8:1],1/8,
{8}7,7,{4}8<7-5[4:1],{16},,,2,{4}1xh[4:1],
4-7[8:1],4/1>3-5[4:1],1,6h[4:1],
5,{8}8h[4:1],1,{4}1<7-2>4[8:5],{8}5,5,
,4-6[8:1],,,{4}8-5[8:1],8/1>4[8:1],
1/8<5[8:1],1,{8}2,2,{4}6<1[4:1],
{8}4,3h[8:3],,,{4}1-5<7-1[2:1],4/1,
2,3,{8}3>1v4[8:3],5,{4}3/7,
{8}8v5[4:1],8,{4}8x,3,4/2-7[8:1],
2/5-8[8:1],5/1-4[8:1],1/6-3[8:1],6/8-3[8:1],
8/5<8[4:1]*>2[4:1],5,{8},1,{4}1/3-6[8:1],
3/8-5[8:1],8/4-1[8:1],4/7<3[4:1],7/8,
8<5[8:1]*>3[8:1],8,Cf,3/4bx-8[8:1],
{8}1,2,{4}3b-6[8:1],{8}2,1,{4}1<8<7<6[4:1],
6>5>4>3[4:1],3-1-7<6>5>4>3b[4:3],{2}Cf,
{4},1b,{8},8,{4}8h[4:1],
2-6[8:1],2/1-5[8:1],1/8-4[8:1],7/8,
{8}7,7,{4}8-2>3[4:1],{16},,,6,{4}7xh[4:1],
5-2[8:1],5/8<4[4:1],8,3h[4:1],
4,{8}1h[4:1],8,{4}8>2-7<5[8:5],{8}4,4,
5,5-3[8:1],,,{4}1>4[8:1],1/8-5[8:1],
8/1-4[8:1],8/1,{8}7,7,{4}3>8[4:1],
{8}5,6h[8:3],,,{4}8-2>4-8[2:1],5/8,
7,6,{8}6<8v5[8:3],3,{4}6/2,
{8}1v4[4:1],1,{4}1x,6,5/7-2[8:1],
7/4-1[8:1],4/8-5[8:1],8/3-6[8:1],3/1-6[8:1],
1/4>1[4:1]*<7[4:1],4,,1/8<5[8:1],
8/2>5[8:1],2/7-4[8:1],7/1-5[8:1],1/8,
E7/A7,4/8,4q4V28>4b[4:7]/8q8V64<8b[4:7],8b/4b,
,,,,,,,8bx/4bx,
{8}3,3,{4}6/2,{8}7,7,{4}5/3,
{8}4,4,{4}6/2>4[8:1],{8}7,7,{4}8b<6[8:1],
{8}3,3,{4}4>2[8:1],{8}5,5,{4}6-8[12:1],
{8}4,3,{4}2-8[12:1],{8}4,5,{4}6b>4[6:1],
{8}3,2,{4}2>4[6:1],{8}6,7,{4}7-1[12:1],
{8}4,3,{4}3-1[12:1],{8},7,{4}8b-4[6:1],
2,{8}2,3,{4}5h[4:1],{8}3,6/3h[4:1],
,7,2/7,2/8h[4:1],,1,{4}1b-3<5[8:5]*<7-5[8:5],
E
