&title=快晴
&artist=Orangestar
&first=0
&des=Citrus*Star
&lv_5=13+
&des_5=Citrus*Star
&inote_5=
(172){4},{1},{4},,{8},{16}5,
5,
{4}4V26[4:1],6p1[4:1],7x,{8}8,8,
1,1,7,8,{4}7-5[16:1],4,
5V73[4:1],3q8[4:1],2x,{8}1,1,
8,E2,8,E3,{4}7-3[8:1],4b,
{8}1,1h[8:1],{16}8,7,{8}6-1[8:1],2h[8:1],6,{16}3,4,{8}5>2[8:1],
8h[8:1],5x,7h[8:1],1x,6xv1[8:1],3h[8:1],{4}6x,
{8}8,8h[8:1],{16}1,2,{8}3-8[8:1],7h[8:1],3,{16}6,5,{8}4<7[8:1],
1h[8:1],4x,2h[8:1],8x,3xv8[8:1],6h[8:1],{4}3x,
{8}7bx/1bx,1bx/7bxh[4:1],{16}B2,B3,{8}B4,{4}5x/6<1[8:1],{8}4,3,
2/1xv6[8:1],2,3x,3,5x/4-2[16:1],5,{4}5x/4,
{8}1bx/8bx,8bx/1bxh[4:1],{16}B7,B6,{8}B5,{4}4x/2>5[8:1],{8}6,7,
8/5x-1[8:1],8,7x,7,{16}6x/2x,3,5,3,5,4,6,5,
{8}7bh[8:1],4,6/3h[8:1],6,2-6[8:1],5-1[8:1],2,5,
2x,3,8/4,7h[8:1],{4}C,{8}1,2,
5x/3h[8:1],6,4/7h[8:1],5,{4}8/6-2[8:1],6/7<4[8:1],
{8}7/8x,1,2,3,{4}3-7[8:1]/4-8[8:1],4/3,
{8}6/1x,5,4/2,3,5/4,6,{4}5/7qq4[2:1],
{8}5x,4,3,2,{4}1>4[8:1],{8}5/1,6,
{4}7b-3[8:1],4-1[8:1],B6/B5,{8}8,8bqq5[8:3],
,1,2,3,{2}4-1[8:1]*-7[8:1],
{8}8x/2xh[8:1],7,1/6h[8:1],1,{4}5/8-4[8:1],8/6-1[8:1],
{8}6/3,3,2,2,{4}8/1,{8}B1,B6,
B2,B7,B3,B8,{4}Cfh[4:1],B7/E7/E8,
{8}1x,2,5/3,6,{4}4/7-5[16:1],{8}4,3,
{4}2b-6[8:1],5b-8[8:1],B4/B3,{8}1b,1bpp4[8:3],
,8x,7,6,{4}5x,6/8xv3[8:1],
7bx,8x-5[8:1]*-4[8:1],8bx,{8}3,2,
8/1h[8:3],7,6,5,{16}2,4,2,4,1,3,1,3,
{2}8b>8[16:27],{4}5b-1[8:1],5b,
,,1-3[8:1],1qq5[8:7],
,2x,3,4xh[8:1],
4-2[16:1],{8}6/4,6pp1[8:3],,2,{4}3h[8:1],
4,{8}8,8-4[4:1],,,1,1-5[4:1],
,,6,6-1[4:1],,,4x,4xp2[2:1],
,,,6h[8:1],,,7,8,
{4}1x-5[8:1],{8}1,7p3[8:1],,7,{4}2-7[8:1]*v5[8:1],
{8},,6x/4x,4/6v1[4:1],,,2,2-5[4:1],
,,8,8-4[4:1],,,3x,3xp1[8:3],
,,,,{4}5h[4:1],{8}1,6,
2,7v4[8:1],,3p1[8:3],,,5,6,
{4}7-3[8:1],{8}7x,1q5[8:1],,1x,8,7xp3[8:1],
,7x,8,1-5[8:1],,1x,8,7,
6x/5>2[8:1],6,7x,7,1x/8<5[8:1],1,2b,2w6[8:1],
{16},,,,,,8x,4,8,4,8,4,{4}Cf,
{16}1b,7,1,7,{4}8-4[8:1],6/8,{16}5,3,5,3,
{4}6bv1[8:1],4,3bv8[8:1],7,
6b-2[8:1],6/1-4[8:1],{8}1/8,7,6<1[8:1],5,
{4}6/4b-2[16:1],{8}4,1,{4}1-5[8:1],1/2-6[8:1],
{8}2b,8,8,8-3[8:1],3b,8-5[8:1],5b,8,
{4}4b,5/3-1[16:1],3/4-8[8:1],4/5-7[16:1],
5/1b-3[16:1],{8}1,8-4[8:1],,8/1-5[8:1],,1b,
7,{16}6,5,{8}6,4,{4}3v8[8:1]/7v4[8:1],3/7,
{16}1b,5,1,5,{4}1-5[8:1],1/4-7[8:1],{8}4b,3,
{4}2bv5[8:1],8-4[8:1],3v6[8:1],5-8[8:1],
5b,2-7[4:1],7b-4[4:1],4-1[4:1],
1b,{8}8x,7p3[8:1],,7,8,1,
2-6[8:1],,,8,{4}8p4[8:1],{8}8b,3V17[4:1],
,,{4}6-4[16:1],{8}6x,1,{4}1bh[4:1],
{8}4q8[4:1],,,2,{4}2h[4:1],8-4[8:1],
8b,{8}3x,2xh[4:1],,1,8,7,
6bx/1bx,1bx/6bxh[4:1],{16}B2,B3,{8}B4,{4}5x/7<4[8:1],{8}3,2,
1/4x-8[8:1],1,2x,2,3x/7,{16}6,5,7,3,4,2,
5,4,6,3,{8}5h[8:1],4,,,4,5,
6x-4[16:1],3,{4}3,2x-4[16:1],2/B6/B5,
{8}7x-5[16:1],4,4,3,{4}2h[4:1],{8}1,8,
2x>4[16:1],7,{4}7,6x<8[16:1],6/B3/B2,
{2}1-5[8:1],{8}4/6h[8:1],3,{4}6/2,
{6}7b/1b,2/6,5/3,6b/4b,7/3,8/2,
7b/1b,8/2,1/3,6b/4b-8[8:1],{24},,{8}7,7h[4:1],
,1b,6,B2,{16}8b,,,1x/7x,,,{8}6/2,
{16}2b/5b,,,3x/4x,,,{8}7/4,{4}5b/6bv1[8:1],{8}2,3,
4/8,7/3,6/2,5/1q5[4:1],,,6,6q8[8:3],
,,3,3p5[4:1],,,8,8,
7/4x>1[8:1],7,6x,6,1x/5<8[8:1],1,2x,2,
{2}3bw7[8:1],{16}1x,5,1,5,1,5,1,5,
{32}1b/Cf,2,3,4,5,6,7,8,1b,2,3,4,5,6,7,8,{8}1b-5[8:1],2,1/8p6[4:1],7,
{4}8b,4qq4[4:1],{2}4bpp4[4:1],
{8}8x,8,4,8>3[8:1],3b,8<5[8:1],5b,8,
4b-8[8:1],,,5,{4}5h[4:1],1h[32:7],
{32}8b/Cf,7,6,5,4,3,2,1,8b,7,6,5,4,3,2,1,{8}8b-4[8:1],7,8/1q3[4:1],2,
{4}1x,5pp5[4:1],5qq5[4:1],{8}1b,1,
{4}1x-5[8:1],{8}1,6-2[8:1],,6,5,4,
{2}3-7[8:1]*-8[8:1],{16}1x,6,1,6,8x,7,8,7,
{32}1b,2,3,4,5,6,7,8,{8}1h[32:3],{32}8b/Cf,7,6,5,{4}4h[4:1],{8}1,5,
1,6,1x>4[8:1],4,1<6[8:1],6,1x,5,
{4}4bV28[4:1],8V64[4:1],4>4[2:1],Cf,
6xv1[8:1],{8}6x,3xv8[8:1],,3x/8,7,6,
5-1[8:1],,,2,{4}2q6[8:1],{8}2,1,
{4}8-4[8:1],8,{32}1b,2,3,4,5,6,7,8,5b/1,4,3,2,1,8,7,6,
{4}1h[8:1]/5h[8:1],{8}2/6,7/3,{4}4p8[8:1]/8p4[8:1],8>3[8:1]/4<7[8:1],
{8},,8/4,7-2[8:1]/3-6[8:1],,7/3,,Cf/1b>8[8:15],
,,,,,,,,,,,,,,,,1,
1,{16}2,3,{8}4,{4}8p4[8:1],{8}8/4,3,
2-6[8:1],2,5-8[8:1],5,1,2,{16}3,4,3,5,
{8}4,4,{16}8,7,{8}6,{4}4p8[8:1],{8}4/8,7,
6-2[8:1],6,1-4[8:1],1,8,7,{16}6,5,6,4,
{8}5,5,{16}1,2,{8}3,{4}5q1[8:1],{8}E2,B2,
B3,B4,B5,B6,B7,B8,{16}E1,B1,C,B5,
{4}E5,7h[4:1],6h[4:1],5b,
{16}4,5,3,5,4,6,3,4,2,6,5,7,1,8,8,7,
{8}1,6p4[8:29]/2p5[8:29],
E
