&title=パーフェクト生命
&artist=ナユタン星人
&first=0
&des=toki
&lv_5=13+
&des_5=toki
&inote_5=
(200){4},,,,{1}Ch[4:15],
{16},,,,,,,,,,,,,,,,,,,B8,
,B7,,B6,,B5,,B4,,,,,,,{8}E8,
E7,E6,{2}E5,
{8}3/6,6/3,7/2,7/2,5,4,{4}5,
{8}3,4,3,4,3,4p8[8:1],,,6,
5,6,5,6,5q1[8:1],,,3,
4,3,4,3,4p8[8:1],,,6,
5,6,5,6,5q1[8:1],,,3,
4,3,4,3,4p8[8:1],,,6,
5,6,5,6,5,{4}5,
{8}3,4,3,4,3,5,{4}5,
{2}6h[2:3]/3-8[8:1],7-3[8:1],
{4}2-5[8:1],,,3,
{2}3h[4:7]/6-1[8:1],2-6[8:1],
7-4[8:1],{4}6,6,
{2}6h[4:7]/3-8[8:1],1-5[8:1],
4-8[8:1],2-7[8:1],
2h[4:7]/8-5[8:1],6-1[8:1],
8-6[8:1],{4}5,5,
{8}6,6,6,6,2,2,2,2,
5,5,7,4,4,2,,,3,
3,4,4,5,5,6,6,
5,5,4,4,3,3,5,{16}5,B2,
B1,B8,{8}B7,6,5,6,3,4,3,
5,5,5,5,3,3,3,3,
6/4,5,3,3,4,4,3/5,4,
5,3,5,3,5,B8/E8/B7,{4}B3/E4/B4,
{8}8-4[8:1],7,{4}8,{8}1-5[8:1],2,{4}1,
{8}8-4[8:1],7,{4}8,{8}1-5[8:1],2,{4}1,
{8}6-2[8:1],5,{4}6,{8}3-7[8:1],4,{4}3,
2-6[8:1],6-1[8:1],{8},,,,8-4[8:1],
7,{4}8,{8}1-5[8:1],2,{4}1,
7>3[4:1],3<7[4:1],{2}7w3[4:1],
{4},3-7[8:1],8-4[8:1],1-5[8:1],
6-2[8:1],2-5[8:1],,,{2}8/7<4[8:1],
1/2>5[8:1],
{8}8-4[8:1],7,8/1-5[8:1],2,{4}1/8-4[8:1],2/8,
2/7,{16}5x,4x,5x,4x,5x,4x,5x,4x,5x,4x,5x,4x,
5x,4x,5x,4x,5x,4x,{8}5x,{4}2-5[8:1]/7-4[8:1],2/7,
1-3[8:1]/8-6[8:1],1b/8b,2-6[8:1]/7-3[8:1],2/7,
1-5[8:1],7-3[8:1],{2}2-6[8:1],
{4}8>3[8:1],8-5[8:1],8<5[8:1],8-3[8:1],
8-4-8[2:1],8,,,{2}1/2>5[8:1],
8/7<4[8:1],
{8}1-5[8:1],2,1/8-4[8:1],7,{4}8/1-5[8:1],1/8,
2/7,{16}3,4,{8}3,{16}6,5,{8}6,{16}3,4,{8}3,
{16}6,5,{8}6,2/7,2/7,{4}6q8[4:1]/3p1[4:1],6/3,
{8},,7-4[8:1],8-3[8:1],7,8,,,2-6[8:1],
1-7[8:1],2,1,,,{4}1/8-5[8:1],
8/1-4[8:1],1/6-3[8:1],6/2-7[8:1],2/6-3[8:1],
6/2-5[8:1],5,,8-6[8:1]/1-3[8:1],
1-5[8:1]/8-4[8:1],1/8,{8}3/7,3/7,6/2,2/6,
3/7,7/3,6/2,2/6,3/7,7/3,{4}6/2,
B3/E4/B4/B8/E8/B7,B1/E2/B2/B6/E6/B5,B8/E8/B7/B3/E4/B4,B1/E2/B2/B6/E6/B5,
{2}B8/E8/B7/B3/E4/B4,{4}2/7-3[8:1],7/2-8[8:1],
2/6-4[8:1],6/2-4[8:1],2/6-8[8:1],6/1-5[8:1],
1/7-3[8:1],7-2[8:1]*-4[8:1],7-3[8:1],7/1-5[8:1],
1/8-6[8:1],8/2-4[8:1],2/7-4[8:1],7/2-8[8:1]*-5[8:1],
{2}2,{8}7-5[8:1],6,{4}7,
{8}3-1[8:1],4,{4}3,{8}8-4[8:1],7,{4}8,
{8}1-5[8:1],2,{4}1,{16}7,8,{8}7,6/3,{16}1,2,
{8}1,3/6,,7-5[8:1]/8-4[8:1],,8/7,,,{4}1-5[8:1]/2-4[8:1],
2/1,{16}B7,B8,B1,B2,,,,,{8}5,
1,4,8,5,1,4,8,
5,1,4,8,5,1,4,8,
5,1,4,8,5,2,4,7,
5,2,4,7,,3h[8:3],,,{4}8-4[8:1],
8-5[8:1],8-3[8:1],8-5[8:1]*-4[8:1],
8-3[8:1],8-4[8:1],{2}8-5[8:1]*-4[8:1],
{4}1-5[8:1],1-6[8:1],1-5[8:1],1-4[8:1],
1-5[8:1]*-4[8:1],1-6[8:1],{2}1-5[8:1]*-4[8:1],
{4}6-3[8:1],6-2[8:1],6-1[8:1]*-2[8:1],6-1[8:1],
6-2[8:1],6-3[8:1],{2}6-1[8:1],
{4}2-7[8:1],2-6[8:1],2-7[8:1]*-5[8:1],2-7[8:1],
2-6[8:1],2-5[8:1],,2/7,
8-6[8:1]/1-5[8:1],1b/8b,1-3[8:1]/8-4[8:1],8b/1b,
2-5[8:1],7-3[8:1],1-5[8:1],8,
{8}2/7,{16}5,4,{8}5,5b,{16}4,5,{8}4,4b,{16}5,4,
{8}5,5b,{16}4,5,{8}4,{4}4b,2-4[8:1]/6-4[8:1],
2/6,2-8[8:1]/6-8[8:1],2/6,{8}5,5,
7,4,4,2,6,6,{4}2-5[8:1],
{2}7-4[8:1],{4}1-5[8:1]/8-6[8:1],8b/1b,
1-3[8:1]/8-4[8:1],1b/8b,{8}2/6,2/6,3/5,3/5,
{4}4/8,1/5q1[8:1],3,8/4p8[8:1],
6,2-5[8:1],6-1[8:1],2-5[8:1],
{16},,,,3,4,{8}3,{16}6,5,{8}6,{16}3,4,{8}3,
{16}6,5,{8}6,{4}2-6[8:1]/7-3[8:1],{2}2/7,
{4}4/7-4[8:1],7,5/2-5[8:1],2/8-4[8:1],
4/8>3[4:1],3<6[4:1],{2}6<8[4:1],
{1}Ch[4:5],
{8},,,,6>3[8:1],6,2<7[8:1],2,
6>3[8:1],6,2<7[8:1],2,6>3[8:1],6,2<7[8:1],2,
6>3[8:1],6,2<7[8:1],2,6>3[8:1],6,,,{4}2-5[8:1]/1v6[8:1],
1/2,7-4[8:1]/8v3[8:1],8/7,
2-5[8:1]/1v6[8:1],1/2,{8},,8,7,
{2}8q4[8:1],{8}1,2,1p5[8:1],3b,
,,8,7,8q4[8:1],6b,,,1,
2,1p5[8:1],3b,,,8,7,
8q4[8:1],6b,,,1,2,1p5[8:1],3b,
,,1-5[8:1],2,{4}1,{8}6-1[8:1],5,
{4}6,{8}8-4[8:1],7,{4}8,{8}3-8[8:1],4,
{4}3,2-5[8:1],5-8[8:1],8-3[8:1],
3-6[8:1],1-4[8:1],{16},,,,6,5,6,5,
{4}6,2-4[8:1],4-8[8:1],8-5[8:1],
5-2[8:1],2-5[8:1],5-8[8:1],8-3[8:1],
2h[2:3],5-8[8:1],,1v6[8:1],
,5-8[8:1],{8},,,,8-4[8:1],
8,1-5[8:1],1,7-3[8:1],7,,,1-5[8:1],
1,8-4[8:1],8,2-6[8:1],2,,,3-7[8:1],
3,8-4[8:1],8,2-6[8:1],2,,,8-5[8:1],
8,1-4[8:1],1,8-6[8:1],8,,,1/8-4[8:1],
7,8/1-5[8:1],2,1/8-4[8:1],7,{4}8/1,
{8}1-5[8:1],2,1/8-4[8:1],7,8/1-5[8:1],2,{4}1/8,
{8}8<5[8:1],7,8/1>4[8:1],2,1/8<5[8:1],7,{4}8/1,
{8}1>4[8:1],2,1/8<5[8:1],7,8/1>4[8:1],2,{4}1/8,
{8},B6,B5,B4,B3,B2,{4}B1,
,Cfh[4:1],
E
