&title=Cala Bonita Neckhurt
&artist=チャーリー・カーク
&first=0
&lv_5=13
&des_5=Charlie Kaminskick
&inote_5=
(98){4}1-6>4pp6[2:1],,,,{1}7-2-5[2:1],
{8}6qq1[2:1]/4pp1[2:1],,,,,,,8p4b[8:5]*q4[8:5],
,,,,,,,,8-6[8:1],
6-1[8:1],{16}1-5[8:1],3,,5,,5,,3,{4}2h[8:1],
{8}4/1>3[16:1],5/8<6[16:1],4/1-4[16:1],5/8-5[16:1],4b/1b-5[16:1],8b,1b,8b,
8-4[8:1],7,{16}2qq1[16:1],1V35[8:1],,2,,5,,7,{4}7,
{8}1v4[2:1],1<7v5[8:3],,,,,,C,
7-2[8:1],7,{16},,1-5[16:1],4,{8}1-6[16:1],1-4[16:1],1,1,
7-3[8:1],3>4[4:1],,1h[4:1],,,7,6/3,
1w5[8:1],8,{16},,,,2h[8:1]/1h[8:1],,,3,{8}6,4,
{16}7h[8:1]/6h[8:1],,,5,{4}4h[8:1]/3h[8:1],{8}7v5[8:1],4b,{4}A7,
{8}1<8-5[4:3],7b-2b[2:1],,,,,,,{1}8<4[4:3],
1-3v1-5[2:1],
{8}1<5[2:1]*>5[2:1],,,,,,,C,
8-6[16:1],{16}4,4,{8}8-2[16:1],5,8-5[16:1],4,8/5,2b,
1-6[16:1],{16}5,5,{8}1>4[16:1],4,1-6[16:1],6,1/4,4b,
5-7[16:1],{16}3,3,{8}8-3[16:1],1,5-8[16:1],6,8/5b,2b,
1-6[16:1],{16}5,5,{8}1-4[16:1],5,1-5[16:1],6,1/5,7b/3,
8-5[16:1],7,8/1-4[16:1],4,{4}1/7-3[16:1],{8}7/2-6[16:1],5,
{4}2/8-5[16:1],8/1-4[16:1],1/6-2[16:1],{8}6/5-1[16:1],7,
{4}5/2-5[16:1],2/8-6[16:1],{8}8/3-1[16:1],4,3/5-8[16:1],8,
{4}5/4-1[16:1],4/6-3[16:1],6/2-7[16:1],{8}2/8-5[16:1],5,
8/2,{16}6,6,{8}4/2,8,1-4[16:1],6/5,1/8,7/2,
6/5,{16}3,3,{4}7h[8:1]/5h[8:1],{8}2-6[16:1],5/3,6/2,8b,
1-4[16:1],{16}7,7,{8}1/8,6,1-4[16:1],8/7,1/8,6,
1-5[16:1],{16}8,8,{8}1-3[16:1],6,1-5[16:1],7,1/5,7b,
5,5/2,{16}4,4,6,6,{8}3,{16}5,5,{8}7,3,
8,{16}5,6,{8}2,4/7,3,{16}6,6,{8}3,5/4,
{4}7bh[8:1]/8h[8:1],{16}4,4,{8}7,7,{16}5,5,{8}1/3,7,
5/4,{16}6,6,{8}1/2,8,{4}1-4[16:1]/7-3[16:1],7/1,
{1}8b-6-2-4[8:5],
{4}1b-5[8:5],1,,,{1}2bqq1>5[8:5],
7b-3>5[8:5],
{8}8-6[8:1],6-1[8:1],{16}1-5[8:1],3,,5,,5,,3,{4}2h[8:1],
{8}4/1>3[16:1],5/8<6[16:1],4/1-4[16:1],5/8-5[16:1],4b/1b-5[16:1],8b,1b,8b,
8-4[8:1],7,{16}2qq1[16:1],1V35[8:1],,2,,5,,7,{4}7,
{8}1v4[2:1],1<7v5[8:3],,,,,,C,
8-6[8:1],6-2[8:1],{16}2-4[8:1],5,,5,,6,,7,{4}8h[8:1],
{8}1-4[16:1],8-5[16:1],1-6[16:1],8-3[16:1],1b-5[16:1],8b,1b,8b,
8-4[8:1],7,{16}2qq1[16:1],1>5[8:1],,2,,5,,7h[16:1],,,,,{8}1v4[2:1],
1<7v5[8:3],,,,,,Ch[8:9],
E
