&title=童遊
&artist=めらみぽっぷ
&first=0
&des_1=differ
&des_2=differ
&des_3=differ
&des_4=differ
&des_5=differ
&lv_5=13+
&des_6=differ
&des_7=differ
&des=differ
&inote_5=(124)
{1},
{2},
1-4[2:2],
{1},
{2},
8-5[2:2],
{1},
{4},
{8}4,4,
{2}3h[2:1]/5h[2:1],
{2},
4/6pp5[2:1],
{4}3,
2,
{2}4p6[4:1],
{2}1p3[4:1],
7pp4[2:1],
{8}5,4,
3,6,
{2}1-4[2:4]/5-8[2:4],
{1},
{1},
{1},
{2},
4/6h[2:1],
{2},
3h[2:1]/5,
{2},
4q5[2:1],
{2},
2h[8:3]/8h[8:3],
{2},
1/6p4[2:1],
{2},
3q5[2:1]/8,
{2},
1<2[2:2]/7,
{2},
{4}7h[8:3],
{8},1h[8:3],
{4},
4,
{8}4,3,
5,6,
{8}3h[8:2],4,
{4}5,
{8}5,6,
4,3,
{8}6h[8:2],5,
{4}4,
{8}42,3,
5,6,
{8}3h[8:2],4,
{4}5,
{8}57,6,
4,3,
{8}6h[8:2],5,
{4}4,
{8}25,3,
{4}4,
{8}4,3,
{4}5h[4:1],
{8}6,4,
{4}3pp3[8:3],
{4}3,
7h[4:1],
{8}2,6,
{4}5,
{8}5,6,
{4}4h[4:1],
{8}3,5,
{4}6pp6[8:3],
{4}26,
4h[4:1],
{8}5,5-2[8:2],
,7,
{2}8>6[8:3],
{4}1,
{8},2,
{8}4,3,
{4}6h[4:1],
{8}5,4,
3h[8:1]/5,4h[8:1],
{8}5,4h[8:1],
{4}5h[4:1],
{8}4,5,
6h[8:1]/4,5,
{8}56,46,
36,26,
{4}1b>4[8:1]/7,
{8}1,6,
{4}5h[4:1]/7-4[8:1],
7,
{8}3v5[8:1],4,
{4}6,
{2}5-3[8:1]/7-5[8:1],
{8}8<5[8:1]/2,2,
{4}8,
{4}4h[4:1]/2-5[8:1],
2,
{8}6pp4[8:3],3,
{4}1-4[8:1],
{4},
{8}4,3,
{4}5/2>5[8:1],
{8},6,
{8}7,8,
1,26,
{4}3/5<2[4:1],
2>7[4:1],
{4}5,
1-5[8:1],
8-6[8:1],
2-4[8:1],
{4}1-5[8:1],
8-6[8:1],
{8}84,3,
{16}2,6,1h[16:2],,
{16}5,2,6,3,
{8}7h,7h,
{4}5-1[8:1]/6,
8,
{4}5-1[8:1],
{8}2,3,
{4}4/5-1[8:1],
{8}7,6,
{4}5-1[8:1],
{8}2,2,
{16}3,4,3,4,
2,,3,4,
{16}3,4,2,5,
3,6,4,7,
{8}5h[8:1],8h[8:1],
6,1,
{8}35,3,
2,2,
{4}4-8[8:1]/3,
1,
{4}4-8[8:1],
{8}7,6,
{4}5/4-8[8:1],
{8}2,3,
{8}4-8[8:1],7-5[8:1],
4,7,
1b,4,
1b,5,
{8}2b,6,
{16}2b,,8,8,
{4}4bq5[4:1],
5<4[8:3],
{2}8h[4:1],
{4}7-4[8:1],
{8}87,8,
{8}4-7[8:1],1pp4[8:2],
4,1,
,6<1[8:1],
1>7[8:2]/2,6,
{4}3,
{8}1,1,
2-5[8:1]/8,34,
2,6,
{8}7/1-6[8:1],34,
1,5h[8:2],
,7-4[8:1],
1-5[8:1],37,
{4}1<3[4:1],
{8}2,1,
{4}8>6[4:1],
{8}6,7,
{8}8-4[8:1],3qq5[8:2],
8,3,
,7-3[8:1],
4,7,
{4}1-4[8:1],
{8}5,5,
{4}4-1[8:1],
{8}8,8,
{8}7-4[8:1]/2,3qq8[8:2],
7,3,
,6-4[8:1],
4>5[8:3],6,
{2}1h[4:1],
{4}2-5[8:1],
{8}12,1,
{8}5-2[8:1],8qq5[8:2],
5,8,
,3>8[8:1],
8<2[8:2]/7,3,
{4}6,
{8}8,8,
7-4[8:1]/1,65,
7,3,
{8}2/8-3[8:1],65,
8,4h[8:2],
,2-5[8:1],
8-4[8:1],62,
{4}8>6[4:1],
{8}7,8,
{4}1<3[4:1],
{8}3,2,
{8}1-5[8:1],6pp4[8:2],
1,6,
,2-6[8:1],
5,2,
{4}8-5[8:1],
{8}4,4,
{4}3-8[8:1]/7-4[8:1],
37,
{8}16,2q5[8:3]/5,
43,25,
{4}7,
1,
{8}1,53,
6-1[8:1]/2-5[8:1],47,
{2}6bpp2[2:3]/2bpp6[2:3],
{1},
{2},
{8}3h[8:1],4h[8:1],
2,35,
{4}6h[4:1],
{8}5,4,
37,6,
2,3,
{16}3,4,3,,
6,5,6,,
{4}4h[4:1],
{8}3,5,
{8}2h[8:1],3,
5h[8:1],4,
3h[8:1],4,
7h[8:1],5,
{4}4/6h[4:1],
{8}1-4[8:1],3,
{4}1,
{8}8-5[8:1],6,
{4}8,
{8}4-7[8:1],3,
4/2pp5[8:2],8,
{4}2/7>6[8:3],
{2}7b,
{8}2-4[8:1],1,
{4}8-6[8:1],
{8}1-5[8:1],2,
{4}8-4[8:1],
{8}1-3[8:1],8,
{4}7-5[8:1],
{8}8-4[8:1],1,
{4}1-5[8:1],
{8}2-4[8:1],1,
{4}8-6[8:1],
{8}1-5[8:1],2,
{4}8-4[8:1],
{8}3b-8[8:1],3,
{4}5b-2[8:1],
{4}7b-4[8:1],
{8}7-1[8:1],2-6[8:1],
{4}7,
{8}7-5[8:1],4-2[8:1],
{8}7-1[8:1],4-8[8:1],
7,4,
5-7[8:1],1-3[8:1],
5-1[8:1],1,
{4}5,
{8}2-5[8:1],5,
{4}6-1[8:1],
4-7[8:1],
{8}3,2p6[8:1],
8,6<4[8:2],
{2},
{4}7-4[8:1],
{8}3,2q3[8:73],
6q7[8:72],
E
