&title=ASH
&artist=cubesato
&first=0
&des=K_S
&lv_5=14
&inote_5=(124)
{1},
{1},,,,
{4}35,6,5,3,
{4}3,4,{16}4-8[8:1]*-1[8:1],,,4hx[16:1],{4},
{4}46,5,4z8[8:1],2,
{4}3,4,6,,
{4}35,6,{16}5/E4,B4,,,{4}3,
{4}3,{16}4,,,5hx[16:1],{4}4,,
{4}46,5,4,2,
{4}7h[2:1]/1h[8:1],{32}B1,C,B5,,,,,,{4}3,,
{4}35,6,5/4hx[8:1],3/4hx[8:1],
{4}3/4hx[8:1],4,4,{16},56,56,56,
{1}5bv2[2:1]*s1[2:1],
{8}4-8[8:1],3,2/A4,,1-5[8:1],{16}2,2,{8}A1,,
{8}4-8[8:1],3,2/A4,,1-5[8:1],{16}2-4[8:1],2,{8}A1,2b,
{8}1-5[8:1],2,3/A1,,4-8[8:1],{16}3,3,{8}A4,,
{8}1-5[8:1],2,{16}3/A1,3,{8},4-8[8:1],E2/B2,E2/B2/A4,,
{8}5-1[8:1],6,7/A5,,8-4[8:1],{16}7,7,{8}A8,,
{8}5-1[8:1],6,7/A5,,8-4[8:1],{16}7-5[8:1],7,{8}A8,7b,
{8}8-4[8:1],7,6/A8,,5-1[8:1],{16}6,6,{8}A5,,
{8}8-4[8:1],7,6/A8,,5-1[8:1],E8/B7,6/A5,E8/B7,
{1}8bxw4[1:1],
{4},,{16}8b-4[8:1],2,7,1,{4}8b/6,
{16}3h[8:1]/5,,,Ch[8:1],4,,3h[8:1],,5-1[8:1],,6-3[8:1],6,{4}A5,
{8}8-4[8:1],7-2[8:1],6/A8,,5-1[8:1],E8/B7,E8/B7/A5,,
{8}4-8[8:1],3-6[8:1],2/A4,,1-5[8:1],{16}2-7[8:1],2,{4}A1,
{8}4-8[8:1],3-6[8:1],2/A4,,1-5[8:1],{16}2-4[8:1],2,{8}A1,2b,
{8}1-5[8:1],2-7[8:1],3/A1,,4-8[8:1],{16}3-6[8:1],3,{4}A4,
{8}1-5[8:1],2,3/A1,,{12}B6/2,B7/3,B8/4,B1/5,B2/6,B3/7,
{8}8b-3[8:1]*-4[8:1],1,8-5[8:1],,2/8>3[8:1]*-4[8:1],1,8<5[8:1],,
{8}8-4[8:1]*-3[8:1]/2,1,8-5-8-5b[8:3],,2/8,1x/A5,1x>4[8:1]/A8,2b,
{8}1-6[8:1]*-5[8:1]/7,8,1-4[8:1],,7/1<6[8:1]*-5[8:1],8,1>4[8:1],,
{8}1-5[8:1]*-6[8:1]/7,8,1-4-1-4b[8:3],,7/1,8bx/A4,8x-4[8:1]/A1,7,
{8}8-5[8:1]*>3[8:1]/6,7,8-4[8:1],,2/8<5[8:1]*-3[8:1],1,8-4[8:1],,
{8}8<5[8:1]*>3[8:1]/6,7,8-4-8-4b[8:3],,2/8,1x/A4,1x-5[8:1]/A8,2b,
{8}1-4[8:1]*<6[8:1]/3,2,1-5[8:1],,7/1>4[8:1]*-6[8:1],8,1-5[8:1],,
{8}1>4[8:1]*<6[8:1]/3,2,1-5-1-5b[8:3],,7/1,8x/A5,8x-4[8:1]/A1,7,
{8}1-5[8:1]/8-6[8:1],2,1-3[8:1]/8,,1-5[8:1]/8-4[8:1],7,8-6[8:1]/1,,
{8}1-3[8:1]/8-4[8:1],2,1-5-1-5b[8:3]/8,,8-6[8:1]/1,7/A5,8-4[8:1]/A1,,
{8}8-5[8:1]/1,3,8-4[8:1]/1,2,8-3[8:1]/7,5,8/7-4[8:1],6,
{8}7/3-6-3-8[8:3],2,3/7-4-7-2b[8:3],8,7,A4,1x-5[8:1]/A7,,
{8}8-4[8:1]/1-3[8:1],7,8-6[8:1]/1,,8-4[8:1]/1-5[8:1],2,1-3[8:1]/8,,
{8}8-6[8:1]/1-5[8:1],7,8-4-8-4b[8:3]/1,,1-3[8:1]/8,2/A4,1-5[8:1]/A8,,
{8}1-4[8:1]/8,6,1-5[8:1]/8,7,1-6[8:1]/2,4,1/2-5[8:1],3,
{8}2/6-3-6-1[8:3],7,6/2-5-2-7b[8:3],1,2,A5,8x<4[4:1]/A2,,
{4}4b-6-8b[4:1],8<3[4:1],3-5<6-8b[4:1],8<2[4:1],
{4}2-4-6-8b[4:1],{8}8-4-8-4[8:3],,2,1/A4,{4}1>5[4:1]/A8,
{4}5-3-1b[4:1],1>6[4:1],6-4>3-1b[4:1],1>7[4:1],
{4}7-5-3-1b[4:1],{8}1-5-1-5[8:3],,7,8/A5,{4}8/A1,
{8}4b-6-8b[4:1],2,8<3[4:1],2,3-5<6-8b[4:1],1,8<2[4:1],1,
{8}2-4-6-8b[4:1],1,8-4-8-4[8:3],1-5-1b[4:1],2,1/A4,{4}A8/A5,
{8}5-3-1b[4:1],7,1>6[4:1],7,6-4>3-1b[4:1],8,1>7[4:1],8,
{8}7-5-3-1b[4:1],8,1-5-1-5[8:3],8-4-8b[4:1],7,8/A5,{4}A1/A4,
{8}8-4[8:1],{16}4<7[8:1],4,{8}8>3[8:1],1,{8}8-4[8:1]*<5[8:1],7x,8-3[8:1],,
{8}8<5[8:1]/2,{16}5>2[8:1],5,{8}8-4-8b[4:1],B3/B2,8<5[8:1]*-3[8:1],7x/A4,,,
{8}1-5[8:1],{16}5>2[8:1],5,{8}1<6[8:1],8,{8}1-5[8:1]*>4[8:1],2x,1-6[8:1],,
{8}1>4[8:1]/7,{16}4<7[8:1],4,{8}1-5-1b[4:1],B6/B7,1>4[8:1]*-6[8:1],2x/A5,,,
{8}8-4[8:1],{16}4<7[8:1],4,{8}8>3[8:1],1,{8}8-4[8:1]*<5[8:1],{16}7x,7x,{8}8-3[8:1],,
{8}8<5[8:1]/2,{16}5>2[8:1],5,{8}8-4-8b[4:1],B3/B2,8w4[8:1],{16}7x/A4,7x,{8},,
{8}1-5[8:1],{16}5>2[8:1],5,{8}1<6[8:1],8,{8}1-5[8:1]*>4[8:1],{16}2x,2x,{8}1-6[8:1],,
{8}1>4[8:1]/7,{16}4<7[8:1],4,{8}1,B6/B7,{24}8,,3,4,2,,1>4[8:1]/5,,6,5,7,,
{8}Ch[4:1],,5>2[8:1],6,Ch[4:1],,8>3[8:1],7,
{8}Ch[4:1],,6>8b[4:1],7,Ch[8:1],,5V31[8:1],6b,
{8}Ch[4:1],,8V24[8:1],7,Ch[4:1],,6V42[8:1],7,
{8}Ch[4:1],,7-1-3-5b[4:1],6,Ch[8:1],,8<5[8:1],1,
{8}Ch[4:1],,4<7[8:1],3,Ch[4:1],,1<6[8:1],2,
{8}Ch[4:1],,3<1b[4:1],2,Ch[8:1],,4V68[8:1],3,
{8}Ch[4:1],,1V75[8:1],2,Ch[4:1],,3V57[8:1],2,
{8}Ch[4:1],,2-8-6-4b[4:1],3,Ch[8:1],,1>4>1[4:1],8,
{8}Ch[8:1],,8>5>8[8:3],7,Ch[8:1],,7>6>7b[2:1],6,
{8}Ch[2:1],,A6f,,,B6/B7,8<5<8[4:1],1b,
{8}Ch[8:1],,1<4<1[8:3],2,Ch[8:1],,2<3<2b[2:1],3,
{8}Ch[2:1],,A3f,,,B3/B2,1,8,
{4}45,6,5,2,
{4}3,4,{8}5h[4:1],E4/B3,{4}E4/B3,
{4}4h[4:3]/6,6,6,{16}5s1[8:1]*v2[8:1],56,56,56,5b,
