&title=Recollect
&artist=鈴木このみ/Ashnikko
&first=0.23
&des_1=Kai
&des_2=Kai
&des_3=Kai
&des_4=Kai
&des_5=Kai
&lv_5=13
&des_6=Kai
&des_7=Kai
&des=Kai
&inote_5=(145){4},,{2}8-5[2:3]*z4[2:3],
{8},,,,,,,,,,,,,7b<3[8:3],
{4}7bh[4:3],
,,2h[4:1],4h[4:1],
6h[4:1],8h[4:1],1>4[8:1],8,
{16}4-8[8:1],,,7,,,{8}6,{4}5<8[8:1],1,
{16}8v6[8:1],,,2,,,{8}3,{4}4>1[8:1],5,
{16}1v3[8:1],,,6,,,{8}7,{4}8-4[8:1],4,
{16}3/5v7[8:1],,,2,,,{8}1,{4}8-3[8:1],6,
{16}3<6[8:1],,,7,,,{8}8,{4}1-6[8:1],3,
{16}6>3[8:1],,,2,,,{8}1,{4}8>4[8:1],4,
{16}5<8[8:1],,,3,,,{8}2,{2}8xh[1:1]/1xs5>1[16:9],
{4},,1>5[8:1],B2/B3,
8<4[8:1],B7/B6,3>8[8:1],B1/B2,
6<1[8:1],B8/B7,{8}3-1[16:1],4,5-7[16:1],4,
3-1[16:1],4,{4}5-7[8:1],5bx/8bx-4[8:1],8bx/3bx-1[8:1],
4bx/3bx<6[8:1],1/3,7<3[8:1],B6/E6/B5,
2>6[8:1],B3/B4/E4,8-4[8:1],B4/E5/E4,
2h[4:1],{8}6-8[16:1],5,4-2[16:1],5,6-8[16:1],5,
4-2[16:1],5,{4}6-8[8:1],{8}2b/6x-4[8:1],2b,2b/6x-8[8:1],2b,
2b/6x,2b,{32}6x/2b<3[4:7],E6,B5,B4,{8}E4,E3h[32:5],,,E4h[32:5],
,,{4}E5h[32:5],{8},E6h[32:5],{16},,,,6,
,,7,,,{8}8,E3h[32:5]/8<1[4:5],,,E2h[32:5],
,,{4}E1h[32:5],{8},E8h[32:5],{16},,,,6-1[8:1],
,,4,{4}6,8/Cf,{8}7/4,{16}6,5,
6,5,{8}6,{16}3,4,3,4,{4}2h[4:1],{8}4,{16}3,5,
,,{8}6/4,7,3,8b/4b,6,1b/4b,3,
8b/5b,6,1b/4b,3,{12}8bx,7x,6x,2bx,3x,5x-8[6:1]/4xv1[6:1],
{4},,{32}1b-5[8:1]/8b-4[8:1],2/7,3/6,4/5,,,,,{4}1/8<5[8:1],
{8}8/4>1[8:1],{16}3,3h[16:3],,,,,{4}1<6[8:1],1/4>8[8:1],
{8}4/7-3[8:1],{16}6,6h[16:3],,,,,{4}5-1[8:1],5/3-7[8:1],
{8}3/1<5[8:1],{16}1,1h[16:3],,,,,{8}8/4,6/2,E8/E4,E2/E6,
C,2qq2[4:1],5,2pp2[4:1],5<8[8:1],6,{4}5,
{8}1,6-2<3[8:5],5,4h[8:5],,,,,,,2/6,
3-8[8:1]/7-4[8:1],,3<6[8:1]/7>2[8:1],,,,,1/2-6[8:1],
3,{4}2/1b-5[8:1],1b/8b-4[8:1],
8b/7b-3[8:1],{8}7b/8b>5>1[8:3],8,{4}8x/B4f/E5/E4,6x,
{8}7h[4:1],1,3h[4:1],1,6h[4:1],8,2h[8:1],{16}1,3,
1,3,1,3,{8}1<4<8[8:3],4,{4}1x/E5/E6/B5f,3x,
{8}2h[4:1],8,6h[4:1],8,3h[4:1],1,6h[8:1],8>4[8:1],
,6,7-2[8:1],8,{4}A7f/3-6[8:1],7/A3,
{16}8<5[8:1],,,8h[16:3],,,,,{8}4-2[8:1],4,5qq6[4:1],5,
,1b,{4}1b,{8}3/4,5,4/2,6,
1/5,6,{4}8h[8:1]/7h[8:1],{8}5-7[8:1],6,4-2[8:1],3,
5-1[8:1],6,4-8[8:1],3,{2}4>6[4:9]/5<3[4:9],
{4},,,,,,,,,,1b-5b[8:1],
2b-6b[8:1],
3b-7b[8:1],4xw8[8:1],{8},,,,6-1[8:1],
2-5[8:1],6,2,8-5[8:1],3-8[8:1],8,3,
4-7[8:1],1-4[8:1],4,1,{32}8x,7x,6x,5xh[4:1],,,,,4x,3x,2x,1x,,,,,{8}3-8[8:1],
7-4[8:1],3,7,1x>4[8:1],1x<6[8:1],1x,1x,
5-3[8:1],5-7[8:1],{4}5w1[8:1],
E
