&title=Just You
&artist=サルケバ
&first=0
&des=whatWF
&lv_6=13+
&des_6=whatWF
&inote_6=
(190){4},{16},,,,,,,,,,,,4,
6h[16:3],,,{8}8-4[8:1],1,2/8b,,,3h[16:1],
,,{4}5h[8:3],{8},B2,,,1h[8:1]/B6,
B5,{4}2h[8:1],{8}3xh[4:3],,,B8,
,,{4}6h[8:3],{8},B2,B3,5x/B4,
,6x/2x,{16}1-5[8:1],8,1,8,{8}1b,,,6h[16:1],
,,{4}4h[8:3],{8},B7,,,8h[8:1]/B3,
B4,{4}7h[8:1],{8}6xh[4:3],,,B1,
,,{4}3h[8:3],{8},B7,B6,B5,
,3x/4x,,1x/8x,{4}7b/2b,B6/E6,
8/2,B4/B3,1/7,B5/B6,
8/1,{8}E4/B3,6x,{4}2bx,B7/E8,
5/3,B1/B2,4/6,B8/B7,
{16}2,3,{8}4h[4:1],6,6,{4}8b/1b,1h[8:1]/2h[8:1],
2h[8:1]/3h[8:1],3h[8:1]/4h[8:1],4h[8:1]/5h[8:1],5h[8:1]/6h[8:1],
7h[8:1]/6h[8:1],{8}7/8-4[8:1],1,{2}8b/2z6[8:3],
{16},,,,,,8,7,6/5,4,3,2,1,8,7,6,
5/1,8,7,6,5/1,2,3,4,{8}5/1bh[8:3],,,4h[8:3],
,B6,{4}7xh[4:1],{8}5h[8:3],,,8h[8:3],
,B2,{4}3xh[4:1],{8}5h[8:3],,,8h[8:3],
,B4,{4}3xh[4:1],1V35[8:3],{8}4,5V38[4:1],
,8-3[16:3],,6,6h[8:3],,,4h[8:3],
,B8,{4}1xh[4:1],{8}6h[8:3],,,4h[8:3],
,B2,{4}1xh[4:1],{8}5h[8:3],,,3h[8:3],
,B7,{4}8x,{8},2/1,,8/7,
,5/6,,4/3,{4}2-6[8:1],2/8,
7,1/7V53[8:3],{8},1,8,7<1[8:3],
,B6,B7,8xh[2:1],,,,2,
,8/2-4V68[2:1],,2/C,,,4x,5xV72[4:1],
,5-1b[8:1],{64},,,,,,,,5b<4[8:7],Cf,{1},{16},{32},{8}5xh[4:1],
,,6h[4:1],
,3h[8:5],,,8,7,{4}6-1[8:1],
4/6-3[8:1],6h[8:3],{8},2b-5[8:1],,2/8b-4[8:1],
,8/3b-7[8:1],,3/5b-1[8:1],A7f,5/2b-6[8:1],A1f,2/7b-4[8:1],
A6f,7/8,A4f,1b,{2}1bw5[4:27],
{1},,,,,,{4},,,E4f/B3/B4/D4/A3,
E8f/B7/B8/D8/A7,E2f/B2/B1/D2/A2,{8}E6f/B6/B5/D6/A6/3bx-5[8:1],,,7,
7,,,8,1,8,{4}1-4[8:1],
{2}1h[4:1],{4}7/8,2/1,
{8}5/4,,,1,8,1,{4}8-5[8:1],
{2}8h[4:1],5h[4:3]/Ch[1:2],
{4},,6,7,
8,1-5[8:1],{2}1b,
{8},,,,,,,,,,,,4h[4:1]/6h[4:3],
,,3h[4:1],
,,{4}2h[1:1],{8}4h[4:1],,,6h[4:1],
,,{4}8h[1:1],{8}6h[4:1],,,5h[4:1],
,,{4}4h[1:1],{8},2h[4:1],,,{4}8h[8:1],
6h[1:1],{8}7h[4:1],,,1h[4:1],
,,{4}3h[1:1],{8}2h[4:1],,,8h[4:1],
,,{4}6h[1:1],{8}4h[4:1],,,8h[4:1],
,,{4}2h[16:17],{8},8h[4:1],{16},,,,4h[4:1],
,,,,5,6,7,{8}8/3,1,2,4/7,
5,6,4/2,3,1/6,8,7h[2:1],{16}B8,C,
{4}B4,{8}3x,2x,1/8,7-3[8:1],5,7,
,2-4[8:1],1,2,{4}1V35[4:1],{8}5V71[4:1],5,
,2v5[8:1],,2,8,7,6,1/8,
2,3,4/7,6,5/2,3,{4}4-8[8:1],
{8}4,1,{4}1,2/8,6/4,
7/1,3/5,6b/8b,3b/1b,
7b/5b,2b/4b,8h[8:1]/1h[8:1],6h[8:1]/3h[8:1],
7h[8:1]/2h[8:1],5h[8:1]/4h[8:1],3h[8:1]/8h[8:1],5h[8:1]/6h[8:1],
2h[8:1]/3h[8:1],5h[8:1]/4h[8:1],6bh[8:1]/1bh[8:1],4bh[8:1]/3bh[8:1],
7bh[8:1]/6bh[8:1],{8}1bh[8:1]/2bh[8:1],{32}A8/A3,D8/D4,A7/A4,D7/D5,{8}A6/A5,{16},,,,6,5,
{8}6,7/4,8/3,1/2,{4}1-5-3[4:1],3-7[8:1],
{8}8,1-6[8:1],2,3/1b-4[8:1],,1b<1b[2:1],,1b,
,A5f/1bw5[8:1],,A1f,,,{4}7/3,
{8}6-1[8:1],1<5[16:3],6,4,,3-8[8:1],8>4[16:3],3,
,7-5-2[4:1],7,2-8-4[4:1],{4}3>3b[2:1],3x,
{8}2x,1,8-4[8:1],8,,5-2[8:1],{4}5,
{16}6,7,8,1,3,4,5,6,{8}7b-3[8:1],5x,7,1-5[8:1],
3x,1,{16}2b,3,{8}4h[4:1],{24},,,8b,3/7,2/6,{4}5h[8:1]/1h[8:1],
{8}3/4,2/5,1/6,8/7,{4}8-4-6[4:1],6-2[8:1],
{8}1,8-3[8:1],7,6/8b-5[8:1],,8b>8b[2:1],,8b,
,A4f/8bw4[8:1],,A8f,,,{4}2/6,
{8}3v8[8:1],8V24[16:3],3,5,,6v1[8:1],1V75[16:3],6,
,,1,2,{4}5/3>6[4:1],6-2-4[4:1],
{8}4-8-6[4:1],5,6x>8[4:1],7h[4:1],,,{4}6h[4:1],
8>4[4:1],{16}4,5,6,7,{8}8b-5[8:1],5x,8,1-4[8:1],
4x,1,{4}5h[8:3],{24},,,4b,6/3,7/2,{4}1h[8:1]/8h[8:1],
{8}7,8/1,2,1/8,{4}7h[8:1],6h[8:1]/B1/B2,
7h[8:1]/B4/B3,6h[8:1]/A1/E2,7h[8:1]/A4/E4,6h[8:1]/A1/B1,
7h[8:1]/A4/B4,6h[8:1]/B2/B3,3h[8:1]/B8/B7,2h[8:1]/B5/B6,
3h[8:1]/A8/E8,2h[8:1]/A5/E6,3h[8:1]/A8/B8,2h[8:1]/A5/B5,
3h[8:1]/B7/B6,{16}6,7,8,1,2,1,2,1,{8}2,{16}7,8,
7,8,{8}7,{16}4,5,4,3,{8}4,{16}6,5,6,7,{8}6,
{16}1,8,1,8,1,2,3,4,6,4,6,4,{8}6,{16}3,5,
3,5,{8}3,{16}8,1,8,7,{8}8,{16}2,1,2,3,{8}2,
{16}1/4,5,6,7,8/5,1,2,3,{8}4/1,1-5[8:1],2/8,1b,
,6h[8:1],4h[8:1],2h[8:1],8,8-4[8:1],7/1,8b,
,2h[8:1],8h[8:1],6h[8:1],4,4-8[8:1],3/5,4b,
,1,1,2>5[8:1],,6/A2f,7,8>3[8:1],
,4/A8f,{4}5-8-2-8-5[2:1],{8}5/2,,,3b,
{4}4x-1-7-1-4[2:1],4/7,{8},6b,{4}5xh[4:1],
{8}Ch[8:9],,,B7,,,{4}B6,
{8},B5,,,1/2,8-4[8:1],7,6/E8/E1/B8f,
,,5/6,4-8[8:1],3,2/E4/E5/B4f,{32},,,,,,,,7,
6,{16}5h[16:7],{32},,,,2,3,{16}4h[16:3],{32},,,,,B5/B4,Cf,B8/B1,{1},,,{4},{32}1,
2,3,4,
{8}5h[8:1],8w4[32:1],,8b,
E
