&title=Clione
&artist=kors k
&first=0.2
&des=白-ster
&demo_seek=53.7
&lv_5=13
&des_5=
&inote_5=
(148){4},,,,{2}3h[4:1]/4<6[8:1],
{4}2>4[8:1],2/1s5[4:1],
,7,7,{8}3,3,
{4}3,{8}6/4,5,{16}3,,,1,,,{8}2,
{4}2,{8}6/4,7,{16}8,,,7,,,{8}1,
{4}2v5[8:1],2/8v3[8:1],{16}8,1,,,{4}4/2z6[4:1],
7,7,7,{8}2,2,
{4}2,{8}3,4,{16}6,,,5,,,{8}4,
{4}3/1s5[4:1],1b/7,8,8-5[8:1]/1v4[8:1],
{8}8b/1b,,,8h[2:1],{16},,,,,,,7,
6h[8:7],,,,,,,,,,,,,,,5,
{2}4h[2:1],{8}3>8[4:1],,,6h[8:3],
,,{4}8h[8:3],{8},1h[4:1],,8-4[8:1],
{1}2h[1:1],
{2}3<5[8:1],1<7[8:1],
{1}2-6[8:1],
6b,
{16}3,4,,,2,8,,,6,5,,5,{8}6,7/4,
{16},5,{8}6,{16}6,4,,3,{8}5,{16}6,2,,8,{8}1,
{16},8,{8}1,{16}2,8,,7,{8}2,{16}3,8,,7,{8}1,
{16},2,{8}4,{16}5,2,,3,{8}6,{16}5,3,,2,{8}4,
{16},6,{8}5,{16}5,7,,7,{8}4,{16}3,6,,5,{8}2,
{16},2,{8}1,{16}2,8,,7,{8}1,{16}1,6,,7,{8}2,
{16},3,{8}4,{16}4,2,,1,{8}8,{16}7,2,,1,{8}3,
{16},1,{8}7,{16}7,2,,3,{8}8,{16}7,2,,3,{8}1,
{4}2/7-4[8:1],7/2-5[8:1],2/6-8[8:1],6/4-2[8:1],
4/1-5[8:1],1/3-7[8:1],3/6-1[8:1],6/3-5[8:1],
3/1-5[8:1],1/4-2[8:1],4/7-4[8:1],7/2-5[8:1],
2/6-8[8:1],6/4-2[8:1],4/1-5[8:1],1/3-7[8:1],
3b/6-1[8:1],6/3-5[8:1],3/1-5[8:1],1/4-2[8:1],
4b,6-8[8:1],6b,5-1[8:1],
5b,8/2,3,4-8[8:1],
{1}4b,
{8}2h[8:3],,,7h[2:1],{16},,,,,,,2,
{8}8-5[8:1],,,1-4[8:1],,,{4}6-3[8:1],
{2}6/2h[8:3],{4}5-8[8:1],5-2[8:1],
{1}5,
6b,
{8}2q5[2:1],{16},,,,,,,,,,,,6,3,
{1}8-5[4:1],
{4}6b,{16},,,,,,,,7-5v4-2[2:1],6,1,2,
{1}3b,
{4}4h[8:3],,,5h[4:1]/6-8[4:1],
{8},,,2,,3,,,,,,8<4[8:3],
,8,,2,
{4}1,{8},,,,2,3,
5h[8:3],,,,,,,5,
{1}6b/3h[8:3],
{8},,,4,5,6,7,8,
1,,,3,4,{16}6,5,{8}6,{16}6,5,
{4}6b,{8}7/1,2,{16}3,4,{8}3,{4}5-1[8:1],
6b/5b,{16}2,8,2,8,2,8,2,8,{8}2,3,
{4}4-8[8:1],{16}4/2,,,2,{4}2-6[8:1],{8}2/1,8,
{4}7-4[8:1],3>1[8:1],,8-5[8:1],
{8}8b/1b,,,3,,,2/4,5,
{4}6,{8}7/1,2,{16}3,4,{8}3,{16}6,5,{8}7,
{16}3,4,3,4,3,,,2,{8}2>4[8:1],{16}1,7,{8}2,{16}6,6,
{8}4,{16}7,5,,5,{8}8,{16}7,1,,2,{8}6,{16}5,4,
,,2,4,,4,{8}1,{16}2,8,,7,{8}3,{16}4,5,
,,6,8,,8,{8}7,{16}6,1,,1,{8}8,{16}7,3,
,,3,1,,1,{8}2,{16}3,8,,8,{8}1,{16}2,6,
,,7,1,,1,{8}6,{16}6,3,,3,{8}5,{16}5,4,
,,2,4,,4,{8}3,{16}3,5,,5,{8}4,{16}4,6,
,,{8}3b,{16},4b,,,5b,,,2b,,,{8}4b,
{16},6b,,,8b,,,1b/2b,{4}1<2[16:5]/2>1[16:5],1/2,
{16},,,,3,8,2,7,1,6,2,7,3,8,2,7,
1,6,2,7,3,8,2,7,3,6,4,5,2,8,3,6,
1,7,4,5,2h[16:1],8,,3h[16:1],{8}7,{16}4h[16:1],6,,5h[16:1],{8}6,
{2}6<2[2:1],2-4-8[2:1],
{4}1,{8}1,2>2[8:3],,,,,5,
{16},,,,,,,,,,,,6b,3,
,,,,,,,,,,,,,,,,{1}6b,
6b,
E
