&title=RAD DOGS (Full ver)
&artist=八王子P x Vivid BAD SQUAD
&first=0.19
&lv_5=13+
&des_5=xiaoY→5.25Happy Birthday Toya Aoyagi!!!
&inote_5=
(140){4},,,,,,,,,,,,,6h[4:7]/5-8z4[2:3],
,,,,,,,3h[4:3]/5-8>5[2:3],
,,,2h[4:3],
,,,1-3[8:1],
8,7-1[8:1],
6,5-7[8:1],4,3-5[8:1],
2,5-2[8:1],2-5[8:1],5-8[8:1],
{16},,,,A3,A4,A5,A6,A2,A1,A8,A7,D2,D3,D4,D5,
D6,D7,D8,D1,{4}2bx-4[8:1],5-1[8:1],8-6[8:1],
2-5[8:1],7,{8}6,5,4,{16}3,4,
{8}3,2,{4}1/6-3[8:1],8-4[8:1],5-7[8:1],
4-1[8:1],8,{8}2,3,4,{16}6,5,
{8}6,7,{4}8/4v1[8:1],5>2[8:1],6-2[8:1],
7>2[8:1],7,{8}5,4,3,{16}2,1,
{8}2,8,{4}8/7<4[8:1],1-5[8:1],5>2[8:1],
{16},,,,7,6,5,4,6,5,4,3,8,7,6,5,
4,3,2,1,{4}8h[4:1],2>4[8:1],7<5[8:1],
3,{8}2,7,{4}6>3[2:1],8,
{8}8,1,{4}2h[4:1],{8},5,{4}5/6h[4:1],
4v2<6[2:1],{8}4/3,3,4,4,,3,
4,5,{4}8-4[8:1]/6-2[8:1],6/8,{16}3h[16:3],,,5h[16:3],
,,{8}4,5<8[8:1],4,{16}3,,,2h[16:3],,,{8}1h[8:1],
8,7,{4}4h[8:1]/6-8[8:1],4h[8:1],3h[8:1]/5-1[8:1],
3h[8:1],{16}E8,B8,B1,E2,E4,B3,B2,E2,D8,D7,D6,D5,
D4,D3,D2,D1,4x/7bx-4[8:1],,,3,{8}7x,2,1h[4:1],5,
7xh[4:1],5,{16}3-7[8:1],,,4,{8}3x,5,6h[4:1],8,
4xh[4:1],8,7x,{16}6,5,,3,{8}4,1x/2,{16}3,5,
,6,{8}4,{16}3/7-4-6-8[4:1],,,2,,,{8}1,,8,
1,2,{4}7>2[8:1]/3<6[8:1],{8}7/3-7[8:1],,,4,
5,6,{4}7>2[8:1]/3<6[8:1],{8}3/7-3b[8:1],,,5,
4,3,2/1,{16}3,5,,6,{8}4,8/7,{16}6,5,
,3,{8}4,{4}B2/B3/Ch[4:3],,,1-5[16:1],
Cf/5b-3-8[8:3]/1bV74[8:3],,,2-5[16:1]/6-1[16:1],
B8f/B4f/2b-8-6-3[8:3]/6b-4-2-7[8:3],,,4q8[16:1]/8q4[16:1],
8b/B6f/Cf/B2f/4b<7-3>1[2:1],,,6-8-5-1[2:1],
{8}6,5,4,3,{4}2h[4:1],
8-4[8:1],{8}8b/2x,{16}3,3,{8}5,6/3,4x/7x,{16}8,1,
{8}8-4[8:1],2/6,8bx,{16}2,2,{8}4,3/5,2x/6x,{16}7,7,
{8}8,7/1,6bx-1[8:1],1-4[8:1],{4}4>5[16:7],{16}A4,A3,A2,A1,
A8,A7,A6,A5,{4}Ch[4:3],,,8<1[32:7],
{32}3x/A8f,A7,A6,A5,A4,A3,A2,A1,{4}A8/5x<8[8:1],{24}7x/E6f,E7,E8,E1,E2,E3,
{4}3x-6[8:1],{24}3x/5x>2[8:1],6,7,8,,,1x-4[8:1]/5x-8[8:1],8,7,6,,,{4}1bx/5bx,
3x>4[32:7],{32}7x/A3f,A2,A1,A8,A7,A6,A5,A4,{4}A3/8x>3[8:1],{24}2x/E1,E2,E3,E4,E5,E6,
{4}1x/6x-1[8:1],{24}2x/6-3[8:1],3,4,5,,,6-2b[8:1]/2x-6b[8:1],1,8,7,,,{4}2bx/6bx,
1h[8:1]/7h[8:1],{16}2,6,3,5,{8}4>8[8:1],8<4-8[4:1],{4}4x,
{16},,,,6,6,,4,{8}4-1[8:1],1-6-3[4:1],{4}4x/8x,
{8},,7/4,6/3,{16}2,2,,1/6-3[8:1],,,{8}8,
1,2,4,{16}6,5/7,,3,{8}4/2,{16}2,1,2,1,
{4}3b/8bxh[4:1],{24}3x-7[8:1],2,1,8,7,6,{4}5,{24}5x-1[8:1],6,7,8,1,2,
{4}3,{48}A4,D4,A3,D3,A2,D2,{8}1xh[8:3],{48}A4,D5,A5,D6,A6,D7,{8}7xh[8:1],{24},6x/2x,3x/5x,4x,,,{4}6b/2bh[4:1],
{24}8xp3b[6:1],1,2,3,4,5,{4}6,{24}1q5b[6:1],8,7,6,5,4,
{4}3x,{24}1,8,7,6h[8:1],,,1-6[8:1],2,3,4h[8:1],{48},,,,1b,B4,C,B8,,,,,,,,,{16}7,
8,7,8,6,1,5,2,{8}4V62[4:1],3,{4}4x/2x-8-4[4:1],
{16},,,,3,5,3,5,{8}1-6[8:1],6-8-4[4:1],{4}1x/5x,
{8},,5/3,2/6,{16}1,1,,8/7<4[8:1],,,1,7,
{8}2,3,{16}4,5,3,6,2,7,1,8,{32}1,2,3,4,5-1[16:1],6,7,8,
{8}1-4-2v5[4:7]*-6-8v5[4:7],5x/Cf,,,,,,,,,,,,,,,,,6,
6,7<4[8:1],7,8x,8,
1,1,2,2,3,3,4h[16:1],4h[16:1],
5h[16:1],5h[16:1],3,3,2>5[8:1],2,1x,1,
8,8,7,7,6,6,4/5h[8:1],4,
5/4h[8:1],5,6,6,7-4[8:1],7,8x,8,
1,1,{4}2/Ch[4:3],{8},,,1,
{4}1-5b[8:1],{16}1b/6h[8:1],,,6h[8:1],,,{8}7,8x/4x,{16}1,1h[16:3],
,,{8}3,5/2,{16}3,4,2v5b[8:1],5,1,6,{8}2x,6,
{4}4h[8:1]/7qq4b[2:1],{8}4/7,3,2-8b[8:1],1,{4}2x,
{8}5,{16}6,6,{8}8h[8:1],{16}7,8,6,1,5,2,{8}3x/4x,E7/E3,
{4}E1/E5,{8}1<7[8:1],{16}4,4,{8}1>3[8:1],{16}6-4[8:1],6,{8}1x-5[8:1],6,
1,6,{16}7,7h[8:1],,8,7,1,6,2,{8}5x>2[8:1],6/4,
{4}7h[4:1],{8}1,{16}3,4,3,5,{8}4,8x,{16}6,5,
6,4,{8}5,{16}3,4,5,6,2,1,8,7,D2,D3,D4,D5,
D6,D7,D8,D1,{384}2bxp8[2:7],6bxp4b[384:1343],{1},,,{4},,,{16},,,{64},,,{96},{4}2-6v4[8:5],
,,,5<5[2:1],
,,,5-1[2:1]*v8[2:1],
,,,8-5[2:1]*-3[2:1],
,,,{64}2b/1bs5[8:3],
B2,Cf,B6,{4},,{16},,,{4}3-8[16:1]/7-4[16:1],
B2f/B6f/3b-6[8:3]/7b>2-6[8:3],,,7-2[16:1]/2-7[16:1],
7b/B8f/B1f/2b-8<7qq6[8:3],,,8-5[8:1],
8-3[8:1]`2h[2:1],8-4[8:1],8w4[8:1],
,6x-2[8:1],6/5,4-8[8:1],
3/4,{8}2x-6[8:1],2,1,1,8-4[8:1],8,
7,7,6x-3[8:1],3-8[8:1],{2}8<6v4[4:1]*>2v4[4:1],
{4},B2/B3/Cfh[1:1],B8/B1,B7/B6,
{8}B5/B4,,,,,,,7/2,
{384}1s5b[8:1],8z4[384:47],{16},,,{64},,,{96},{4}8b/1b,6<8[8:1]/3>1[8:1],6/3,
6x/2x>5[8:1],{24}6x,7,8,1h[8:1],,,6x,7,8,1,2,3,{4}5-1[8:1]/4-8[8:1],
4b/5b,{32}1x-5[8:1],2,3,4,5,6,7,8,{4}1,{32}7x-3[8:1],6,5,4,3,2,1,8,
{4}7,{24}1,8,7,6h[8:1],,,8-4-2[6:1],7,6,5h[8:1],,,{4}8b,
7h[8:1]/8h[8:1],{16}1,6,2,5,{8}3-8[8:1],8-6-4-1[4:1],{4}3x,
{16},,,,7,7,,4,{8}4V61[4:1],8,{4}4x/1-3-5[4:1],
{8},,7,6/4,{16}3,3,,1/2-5[8:1],,,{8}8,
7,6,{16}5,4,6,3,7,2,8,1,{32}8,1,2,3,4,5,6,7,
{4}4>1[8:1]/8-4[8:1],4b/8b,1-5[8:1]/5-7[8:1],1b/5b,
8<5[8:1],{24}4x,3,2,1h[8:1],,,4x,3,2,1,8,7,{4}6-2[8:1]/4-2[8:1],
4b/6b,{32}8x-4[8:1],7,6,5,4,3,2,1,{4}8,{32}2x-6[8:1],3,4,5,6,7,8,1,
{4}2,{24}5x,6,7,8h[8:3],,,4x,3,2,1h[8:1],{192},,,,,,,,,,,,,,,,,,,{64}E8/E2,B7/B2,B6/B3,{16}E4/E6,,,{4}6h[8:1]/3h[8:1],
{16}7,7,5,5,{8}8V24[4:1],6/2V46[4:1],{4}8x,
{16},,,,2,1,3,8,{8}7-4[8:1]/4>1[8:1],5/6,{4}7x/4-8[8:1],
{8},,7/2,6/3,{16}5/3,3/5,,4/2-5[8:1],,,5,2,
{8}6,7,{16}8,4,7,3,6,2,5,1,{32}4,3,2,1,8,7,6,5,
{4}4-8[16:1]/2-6[16:1],4b/Cf/2b-5-8-5qq5s1b[4:5],{8},,,,,,,,,,,2/8,
7/3,6/4,{16}3h[8:1]/5h[8:1],,,6h[8:1]/4h[8:1],,,{8}7/5,{16}6h[8:1]/4h[8:1],,,5h[8:1]/3h[8:1],
,,{384}2-5-8-3b[8:5],4-1-6-3[384:239],{1},{16},{64},,,{96},{4}6<1[4:1],
1>4[4:1],4<7[4:1],
7>2>8b[4:3],Cf,{8},,,,,,4/6,
7,{16}8,8,,1/2>5[8:1],,,{8}8,
7,6,{4}5h[1:1]/Cfh[1:1],,,,,7-4[8:1],
7/3-7[8:1],
3/8-3[8:1],8/1,{8}4/2,5,7/4,{16}6,5,
{8}6,4,{4}3-1[8:1],3/4-8[8:1],4/1-5[8:1],
1/8<6[8:1],8,{8}4/5,3,2/4,{16}3,4,
{8}3,6,{4}5-3[8:1],5/7-1[8:1],7-5[8:1],
7/3v8[8:1],3,{8}5,6,7,{16}8,1,
{8}8,2,{4}3-7[8:1],3/1-6[8:1],1/2v5[8:1],
2,{16}6,5,4,3,7,8,1,2,E8,E7,E6,E5,
E4,E3,E2,E1,{4}E8/Cf,{16},E1,{32},,,E2,,,,E3,,,,E4,
,,,E5,,,,E6,,,,,{8}E7,{16},E8,,,,,{8}E1,
{16},,,,,E2,,,,,,,,E3,,,,,,,,,,E4/C,
E
