&title=Vulcānus
&artist=Team Grimoire vs Aoi
&first=0.68
&des=taketo
&des_5=taketo
&lv_5=14+
&inote_5=(212)
{32}1b/8bpp2pp4pp6pp8b[4:15],2bx/7bx,3bx/6bx,4bx/5bx,
{8},
{4},,,4h[4:1],,3h[4:1],,2h[4:3],,,,1h[4:3],,,,2qq8qq6qq4qq2[4:15],,,,6h[4:1],,7h[4:1],,8h[4:3],,,,1,,1,,
{48}A8,D8,A7,D7,A6,D6,
{4}5hx[8:8],,,
{8},
{48}A1,D2,A2,D3,A3,D4,
{4}4hx[8:15],,,
{8},3>7qq4[4:6],,,,,,,,,,,,3h[4:1],,,,2b^5v3b[4:6]/6b^1[2:1],,,,,,,,2bp6[2:1],,,,,,,,1bq4[4:6]/5bqq8[4:6],,,,,,,,,,,,,,,,Cf,,,,,,D3/D7,,3b/5bh[2:1],,7,,8,1,26,3,7-5[8:1]/4-6[8:1],,4/7^1[8:1],,2-6[8:1]/7,,2,8,5h[2:1]/7,,3,,2,1,48,7,26,
{16}3,4,3,5,4,5,2,6,2,6,
{8}3-8[8:1]/7-4[8:1],,3b/7b^5[8:1],,7-3[8:1],1-5[8:1],7,1^4[8:1],4,16,8-4[8:1],,2/8b,,3h[4:1],,7b,7b,26,2/6h[8:5],D3,E2,D4,B3,D5,B5,
{16}7,8,7,,5,6,5,,
{12}8,2,4,3,5,7,
{8}5hx[2:1],,
{32}8b,1,2,3,
{8}4h[4:1],,6,47,8,1v6[8:1]/5^2[8:1],,1-7[8:1]/5,,1-5[8:1],,1/2-4-8b[4:1],3,4h[2:1],,,,1,48,37,26,15,48,26,37,
{16}4b/C,,,8b/C,,,2b/6b,,2,4,2,4,3,5,3,5,
{8}4,4h[4:1],6,6h[4:1],8b,8,17,17,
{16}2,6,5,,7,3,4,,
{8}28,37,46,17,26,35,4h[2:1],,
{32}E1,E2,E3,E4,E5,E6,E7,E8,E1,E2,E3,E4,E5,E6,E7,E8,E1,E2,E3,E4,E5,E6,E7,E8,
{8}E1/Cf,,1x-5b[8:1],,1x,
{16}6,4,6,,3,5,,6,4,,3,5,2,4,1,,1/8h[4:1],,,,6,,5,,4,,8,7,6,5,8,1,2,3,6,4,6,4,7,5,7,5,8-2-5-7[2:1],,4,,4h[4:1],,,,,,,,1,8,1,8,2h[16:3],,,5h[16:3],,,3h[8:1],,7h[16:3],,,4h[16:3],,,6h[8:1],,8,7,1,,26,,35,,2h[4:1],,4,5,6x,,2b,,8,4,7,2,6h[8:1],,1,5,2,7,3h[8:1],,8,4,8,4,
{8}7-3[8:1],1,7,1h[8:1],
{12}4h,8,6h,2,8h,4,
{16}8-4[8:1],,,,8b,,3,2,1,,7-4[8:1],8,,8,7,,3h[8:1],,1,2,,2,1,,2-5[8:1]/8-5[8:1],37,46,,28,,,,4,8,3,8,2h[8:1],,5,1,6,1,7h[8:1],,2,8,2,8,2,3,4,5,1,8,7,6,
{24}1x,2,3,5x,6,7,
{8}1b/8b,,1hx[4:1]/5hx[4:1],,,
{16}4h[16:3],,,6h[16:3],,,2,,2,,7h[16:3],,,5h[16:3],,,1,,E1,B8,B7,E7,E5,B4,B3,E3,
{8}8,7,46,3,5,24,1,24,
{16}5h[8:1],,2,6h[8:1],,3,7h[8:1],,4,8,4,8,5,1,5x,,
{8}E1/B1/E5/B5,E8/B7/E4/B3,,2h[8:1]/6h[8:1],,E2/B1/E6/B5,E3/B3/E7/B7,,,48,4h[8:1]/8h[8:1],,
{16}E8/B8/E4/B4,,,E2/B1/E6/B5,,,E3/E7/B2/B3/B6/B7,,
{8}15,3b/7b,,48,2b/6b,,15,3b/7b,,48,2b/6b,,E1/E5/B4/B8,,2pp5[2:1]/6v1b[8:1],,2b/6b`Cf,,,,
{16}8,4,7,,1,5,2,,7,4,6,,2,5,3,,17,,3h,6,5h,7,2h,,1-5[8:1]/5^8[8:1],,,,1b/5b,,,,4h[8:1],,8,5,1,,8,5,7,,8,4,1,,8,4,7,,
{8}E4/E8,E3/E7,E2/E6,1x-5b[8:1],,5^3-7[8:3],,7,6,5,4^7[8:1],,4-2[8:1]/8p4[8:1],,4-7-5-1b[8:3]/8,,1,2,3,4,4,8,8,
{16}4,1,4,1,5,2,5,2,5hx[2:1],,,,D1,D2,D3,D4,D5,D6,D7,D8,2h[16:1],1h[16:1],2h[16:1],1,
{32}3x-8b[8:1]/8x-4b[8:1],47,56,,
{8},,,2^5[8:1],,7,8-6-4[4:1],,4,3s7[4:1],,7-1-3[4:1]*-5[8:1],,,,
{16}4,5x,6,7,1h[4:1],,,,8,E3,7,B4,8,B2,7,E5,B7,1,B5,2,E7,1,7xh[8:1],,3,8,3,8,
{32}3,4,5,6,7,8,1,2,
{8}3b/7b-4-6-1[8:3],,1,2,3b-8-2-5[8:3],3,8,7,6b-8b[8:1],6-2b[8:1],6-4-7b[4:1],,,,1,1,18,18,
{16}26,,3,4,5,,26,,7,8,1,,3h[8:1]/5h[8:1],,,,2,6,2,6,1,7,1,7,1,2,37,6,
{32}1b/5x,B1,Cf,B5,
{8},,,
{2},
{1}4h[1:1],1h[1:1],3-5-2-6[4:3],7h[1:1],
{12}4h[1:1],,,E7,B6,B5,B4,B3,E3,B2,B1,B8,
{16}B7,,,,,,6,5,6,,,,E5,E4,E3,E2,
{8}8hx[2:1],6,5,4,4h[2:1],2,1,8,
{2}7qq4[4:3],E1/B8/B1,2pp5[4:3],E5/B4/B5,6^1p5v2[4:3],B2/B3/E3,4qq3-5-1[4:3],
{8}B8,E8,B7,E7,
{1}6hx[1:1],
{12},,,3,5,4,6,4,5,3,5,4,
{8}6h[8:3],,1,1h[8:3],,4,4h[4:1],,3h[4:1],,5,6h[4:1]/3,,5,4h[4:1]/6,,8,8,37,37,
{16}3,7,2,6,1,5,8,4,
{1}3hbx[1:1]/7hb[1:1],,
{2},
{24}E4,A3,,,,,,,,,,,E7,A6,,,,,,,,,,,,,,,,,,,,,,,,,,,,,,,,,,,E8,A7,,,,,,,,,,,8/A2,E3,,
{8}7,6,5,4,3,2,1,
{16}8,7,6,5,
{24}4,3,2,1,8,7,
{48}6,5,4,3,2,1,8,7,6,5,4,3,
{4}2xw6b[8:1],2bx>2[4:3]*<2[4:3]/Cf,,,,
{8},,3,3,
{16}8-4[8:1],1,8,1,8b,,,,25,,1,7,8,6,3,5,2h[8:1],,7,2h[8:1],,6,2h[8:1],,5h[8:1],,1,5h[8:1],,2,5h[8:1],,4,6,3,7,4,6,3,7,4-6[8:1],,2-5[8:1],,4-7-1-5b[2:1],,2,,4x,,,3h[8:1],,,2,,2-6[8:1],,8,,2/7-3[8:1],,8,,37,,,,1b/5b,,,,2h[8:1],,6,5,2h[8:1],,7,6,2h[8:1],,8,7,2,,2,,7h[8:1],,3,4,7h[8:1],,2,3,7h[8:1],,1,2,7,,7,,
{24}4h[8:1],,,8b,1,2,4h[8:1],,,8b,7,6,
{40}2b,E3,B3,B4,E5,8b,E8,B7,B6,E6,
{8}1q4[8:3]*p6[8:3],,A1f,,,,3x/5x,4,57,8,1/7h[8:1],
{16}2,5,4,5,2,,7,3,5,3,7,,17,,28,,6,3,4,3,6,,2,5,4,5,7,5,4,5,3,4,3,,
{8}25,7,38,4,5h[4:1]/6,,
{12}1b,1,1,2b,2,2,3b,3,3,4b,4,4,
{16}5-1^7-4[8:3],,,3,3,,2,,2v7-1-3[8:3],,,5,5,,4,,
{4}4-7b[8:1],1-5b[8:1]/4,1/8-3b[8:1],2-4-6-8>8[8:7]/8,4bh[1:1],,,,
{16}1x,2,3,4,8,7,6,5,
{24}1,8,1,8,1,8,
{8}1w5[8:1],,
{1}B2/B3/E3/B6/B7/E7/C,
{4}3,4,5,6,
{8}4,4,5,3h[2:1],,,,7,2h[8:2]/6h[8:4],,,,4hx[8:1],
{16}7,7,Cf,,,,
{32}2x/6bh[16:1],3,4,5,6,7,8,1,2x/6bh[16:1],3,4,5,6,7,8,1,2x/6bh[16:1],3,4,5,6,7,8,1,2x/6bh[16:1],3,4,5,6,7,8,1,2/6b,37,48,15,
{8},,4,3,26,26,7-3^8[4:1],,4,5,6-8q4[4:1],,4,5,6-3-5-1[8:3],,4,2,8^5b[8:1],,8b/3h[4:1],
{32}4x,,2,1,8,7,6,5,
{8}4-8[8:1],,4-2-8-6[4:3],,7,7,6,6,5-3[8:1],5,5-1[4:1],,1-4-8[8:2],8,7,6,6bh[8:1],
{16}1^6b[8:1],7,2,,1/3b,,4,5,2,7,3,6,1,8,B1/E2/A1,B2,B3,B4,B8/E8/A8,B7,B6,B5,D3/E3/A2,A3,D4,A4,D7/E7/A7,A6,D6,A5,1bh[4:1],,,,5h,4,6h,5,8h,1,7h,8,5h,4,6h[8:1],,4h,5,3h,4,1h,8,2h,1,5h,6,4h,5,8h,7,1h,8,2b,3,4,5,8b,7,6,5,3b,2,1,8,5b,6,7,8,
{24}2b,1,2,
{16}1,,3b/8b,,17,26,3b^5[8:1]/5bv8[8:1],,,,3b/5b<2-4-6[8:3],,,,8hx[8:3],,,,,,,,5x/7x,,1,8,1,,24,,17,,56,,28,,4,5,3,,46,,26,,28,,4b/8b,,,,2b/6b,,8b,1b,2b/7bv4[8:1],,6-1[8:1],,7,,6,,5,2,4,1,3,8,2,7,1,6,8,5,7-3b[8:1],6,1,4,7x-1-3^5s1[4:10]`Cf,,,,
{1},,
{4},,2hx[4:1],
{16}3b/5b,46,57,6,7,8,1,2,3,4,5hx[8:1],,4b/6b,35,24,3,2,1,8,7,6,5,4hx[8:1],,1b,5,8b,4,7b,3,8b,4,1b,5,2b,6,
{12}3,B1/E2,4,5,B8/E8,6,
{1}7bhx[1:2]/2bh[1:2],,
{4},
{16}1,8,1,8,1,8,1s5[8:1],8z4b[8:1],1,8,E3/E7/B2/B3/B6/B7/Chf[16:1],
