&title=饕餮日记
&artist=Tokini11
&first=0
&wholebpm=95
&lv_5=14
&des_5=欲望の名のもとに Nightmare
&inote_5=(95){1},
{8},,,,,,,3,
{16}1/5,,3,3/5q7[4:1],,4,,3/5,,,1,,1,,2,3,
8/4,,6,6/4p2[4:1],,5,,4/6,,,8,,8-4[9:1],,7,6,
{4}8/5-1[9:1],5/4-8[9:1],4/1-5[9:1],1/8,
{16}6,,6,5,,5,8,,8,1,,1,7,,7/2,,
3,,3,4,,4,1,,1,8,,8,2,2,2,2,
8-5[11:1],,3,3,,,2,,2-4[13:1],,,,6,,7,,
5-2[11:1],,8,8,,,7,,7V58[6:1],,,,1v6[9:1],,2,,
3/1v4[9:1],,,,1/7,,,,6h[16:3],,3,3h[16:3],,,5p8[16:9],,
4q1[16:7],,,,,,,,,,,,,,2/7,,
1-4[11:1],,6,6,,,7,,7-5[13:1],,,,3,,2,,
4-7[11:1],,1,1,,,2,,2V41[6:1],,,,8,,7V51[32:5],7-3[32:3],
8,,7,,,,4,4,8-4[8:1],,4>8[4:1],,8,1<5[4:1],,,
4h[2:1],,,,,,,,5,,3/6,,1/8,,7,7,
6>3[11:1],,2,2,6,,1,,8/7-4[11:1],,6,,7/1,,2,,
3<6[11:1],,7,7,3,,8,,1/2-5[11:1],,3,,2/8q6[4:1],,7,,
6q4[4:1]/8,,,,4q2[4:1],,,,2<7[16:3],,7,7q2[4:3],,,6p3[16:9],,
5,,,,,,,,,,,,,,5/4,,
2<7[11:1],,6,6,2,,5,,4/3-8[11:1],,2,,3/5,,6,,
7>2[11:1],,3,3,7,,4,,5/6-1[11:1],,7,,4/6,,3-1[13:1],3,
8-4[11:1],,3,,8,,1,1h[16:3]/5,,,6-8[13:1],,1-5[11:1],,6,,
1>4[11:1]*<6[11:1],,,,1w5[11:1],,,,1,,,,1/8,8,8,8,
{48}2,3,4,{16}5h[2:1],,,,,,,{48}8,1,2,{16}3-8[31:1],,,,,,,
{48}7,6,5,{16}4h[2:1],,,,,,,{48}1,8,7,{16}6-1[31:1],,,,5,5,4,
{4}5h[2:1],7h,4h[2:1],2h,
8-5[11:1]*-6[13:1],8-2[13:1]*-3[11:1],8,{32}8,,8,,1,8,1,8,
{16}7b/2b>5[13:1],,1,1,2/5-1[13:1],6,7-4[13:1],8,5,,7,,1-6[13:1],,2-5[13:1],,
1,,2,,7-4[13:1],4,8-3[13:1],3,7,,8,,,,2/6,,
1-6[13:1],,5,5,1-4[13:1],,5-8[13:1],5,1,,5,,2-4[13:1]*-8[13:1],,1/3,,
2b-6[13:1],,7,,2b/8<5[11:1],,4>1[11:1],,8-4[11:1],,4-8[11:1],,8,,1,,
2/7<4[13:1],,8,8,7/4-8[13:1],3,2-5[13:1],1,4,,2,,8-3[13:1],,7-4[13:1],,
8,,7,,2-5[13:1],5,1-6[13:1],6,2,,1,,,,3/7,,
8-3[13:1],,4,4,8-5[13:1],,4-1[13:1],4,8,,4,,6,2,7,1,
8b-4[11:1],,1,2,8bw4[11:1],3,6,1,8b,,,,2/6,,7,,
8/4,,7,7/1>3[11:1],,8,,1/7,,8,4,8,4,,3,2,
1/5,,2,2/8<6[11:1],,1,,2/8,,1,5,1,5v2[9:1],,6,7,
{4}5/8v3[9:1],8/1v6[9:1],1/4v7[9:1],4/5<4[2:1],
5/1h[2:1],,,{16}7/3,,2,,
5/1,,2,2/8pp3[3:1],,1/6,,5/8,,4,5,6,7,,2,3,
4/8,,7,7/1qq6[3:1],,3/8,,1/4,,5,4,3,2q6[9:1],,7,6,
{4}2/5q1[9:1],5/4p8[9:1],4/7p3[9:1],7/1,
{16}2,,2,8,,8,1,,1,5,,5,4,,3/6,,
7,,7,1,,1,8,,8,4,,4,5,5,5,5,
1,,2>5[11:1],1,,1,2,,8,,7<4[11:1],8,,8,7,,
2,,3v8[11:1],5,,5,3,,7,,6v1[11:1],4,,4,6,,
5/7p3[4:1],,,,3p7[4:1],,,,7>6[4:3],,1,1,,,2,,
3h[2:1],,,,,,,,,,,4/5,,,2/7,,
8,,7v4[13:1],8,,8,7,,1,,2v5[13:1],1,,1,2,,
7,,6<1[13:1],4,,4,6,,2,,3>8[13:1],5,,5,3,6,
7h[8:1],,5h[8:1],,4h[16:3],,2,2h[16:3],,,1h[8:1],,8h[8:1],,6,6,
3/4,,8,5/6,,1,2/7,(190)2/7,3/6,{1}4b/5b,
{8}6h[4:3],,,5h[8:3],,,,,3h[4:3],,,4h[8:3],,,,,
7h[4:3],,,8h[8:3],,,,,2h[4:3],,,1h[8:3],,,,,
6h[4:3],,,8,,,2,,3h[4:3],,,1,,,7,,
{4}7h[4:1]/5,3,2h[4:1]/4,6,7,8,1,2,
5-1[2:1],6,,7,4-8[2:1],3,,2,
7-3[2:1],6,,5,2-6[2:1],3,,4,
5/8V62[2:1],7h[4:1],,5,4/1V37[2:1],2h[4:1],,4,
8<4[4:1],,1>5[4:1],,6h[4:3],,,3,
{8}1b/7-4[8:1],,7/8,8,5,5,1>4[8:1],7,8/1<6[8:1],,1/2,,4,,6/5-7[8:1],,
5/3,,4/5v2[8:1],,5/7,,4-2[8:1]/5-1[8:1],6,5-7[8:1]/4-8[8:1],,4/5,,,,1,,
5/1-5[8:1],,1-7[8:1]/8,,1-3[8:1]/5,3,1-6[8:1]/5,6,1-4[8:1]/5,,1/7,,3/6,,1-6[8:1]/8-6[8:1],,
1b/8b,,1-3[8:1]/8-3[8:1],,1b/8b,,8/1-5[8:1],,1b/7-3[8:1],,7b/2>5[8:1],,2b/8<5[8:1],,8b/1b,,
8/2-5[8:1],,2/1,1,4,4,8<5[8:1],2,1/8>3[8:1],,8/7,,5,,3/4-2[8:1],,
4/6,,5/4v7[8:1],,4/2,,5-7[8:1]/4-8[8:1],3,4-2[8:1]/5-1[8:1],,4/5,,,,8,,
4/8-4[8:1],,8-2[8:1]/1,,8-6[8:1]/4,6,8-3[8:1]/4,3,8-5[8:1]/4,,8/2,,3/6,4,4,5,
4bw8[8:1],,,,5bw1[8:1],,,,4bv1[6:1]/5bv8[6:1],,,,,,4,5,
6/3<6[5:1],,3,8p4[5:1],,8,,,2h[4:1],,4h[4:1],,6h[4:1],,8h[4:1],,
1pp4[1:1],,1,6h[8:3],,,,,5,,6,,7/3,,5,4,
3/6>3[5:1],,6,1q5[5:1],,1,,,7h[4:1],,5h[4:1],,3h[4:1],,1h[4:1],,
8qq5[1:1],,8,3h[8:3],,,,,4,,3,,2/6,,5,6,
7-2[6:1],,7,4-1[6:1],,4,,,8h[4:1],,6h[4:1],,4h[4:1],,2h[4:1],,
7-3[6:1],,,1-5[6:1],,,6h[4:3],,,,5,,4,,3,,
2-7[6:1],,2,5-8[6:1],,5,,,1h[4:1],,3h[4:1],,5h[4:1],,7h[4:1],,
2,,1bs5[4:5]/8,1/8bz4[8:9],,,,,,,,,,,,,
1-4[6:1]/7-4[6:1],,,,8-5[6:1]/2-5[6:1],,,,3-8[6:1]/6-1[6:1],,,,2/7,2/7,2/7,2/7,
8b/4,,6,6/4v7[6:1],,2/4v1[6:1],,6/4,,6,2,6,2,,2,7,
1/5,,3,3/5v2[6:1],,7/5v8[6:1],,3/5,,3,7,3,7,,7,2,
{2}1q5[8:1]/6h[4:1],6q2[8:1]/4h[4:1],5h[4:1]/3p7[8:1],3h[4:1]/8p4[8:1],
{8}2,,2,5,,5,3,,3,6,,6,1,,1/8,,
7,,7,4,,4,6,,6,3,,3,8,,8<5[8:1]/1>4[8:1],,
{1}1b/8b,,,,
E
