&title=Zionia Garden
&artist=paraoka
&first=-0.45
&des=techno群友
&lv_5=13+
&inote_5=(172)
{8}
,,,,,,,,4,,,,,,,,
5,,4h[4:1],,,,,
4,,,,,,,,,
,5,,4h[4:1],,,,,
5,,,,,,,,,4,,5h[4:1],,,,
,
4,
,,,,,,,,,5,,4h[8:1],
{16}
6,,4,,
53,,4,,{8}
2>5[8:1],1,8,7<4[8:1],8,1,
2,,2>5[8:1],5z1[4:1]/5<8[2:1],,,,
,,{16}{8}
7<4[8:1],8,1,2>5[8:1],1,8,
7,,7<4[8:1],4s8[2:1]/4>1[4:1],,,,
1-5[1:2],
,1,8h[8:1],
,1-3[8:1],7h[8:1],1,,1h[8:1],,1,8h[8:1],1-7[8:1],7h[8:1],1,,1-5[8:1],5-1[8:1],1q7[4:1],,7q3[4:1],,3q1[4:1],,1p5[2:1]/1q4[20:15],,,,,,,,
5-1[8:1],1-5[8:1],,,7-3[8:1],3-7[8:1],,,6-2[8:1],2-6[8:1],,,8-4[8:1],4-8[8:1],,,
6-2[8:1],2-6[8:1],,,8-4[8:1],4-8[8:1],,,
,,,,{16},,,,
8,1,2,3,
{8}
84,1pp5[4:1]/5,27,
{16}1,8,7,6,5,4,
{8}
15,2pp6[4:1]/6,37,
{16}2,1,8,7,6,5,
,,1b/5b,,2b/6b,,,,
{8}
15,8qq4[4:1]/4,72,
{16}8,1,2,3,4,5,
{8}
84,7qq3[4:1]/3,62,
{16}7,8,1,2,3,4,
,,8b/4b,,7b/3b,,,,
6b-1[8:1]/6b-3[4:1],,6h[8:1],,,,1b-5[8:1],,,,,,3b-8[8:1]/3b-6[4:1],,3h[8:1],,,,8-4[8:1],,4-2[8:1],,2-6[8:1],,6-8[8:1],,,,,,,,
7b-4[8:1]/7b-2[4:1],,7h[8:1],,,,4b-8[8:1],,,,,,2b-5[8:1]/2b-7[4:1],,2h[8:1],,,,5-1[8:1],,1-3[8:1],,3-7[8:1],,7-5[8:1],,
,,,,,,
{8}
3/5-1[4:1],3,3,3h[4:1],,,35,3q7[4:1],3,3h[4:1],,,,3,3,,
6/4-8[4:1],6,6,6h[4:1],,,64,6q2[4:1],6,6h[4:1],,,,6,6,,
3/5-1[4:1],3,3,3h[4:1],,,35,3p7[4:1],3,3h[4:1],,,,3,3,,
6/4-8[4:1],6,6,6h[4:1],,,64,6p2[4:1],6,6h[4:1],,,,6b/2b,6b/2b,,
7,5,3,1,5h[8:1],4,3,6h[8:1],4,5,
7,5,3h[8:1],7h[4:1],,,
1-3<4[4:1],1,1,1-6>5[4:1],1,1,8-2>3[4:1],8,8,8-5>4[4:1],8,8/4-1<8[4:1],
,,,,
2,4,6,8,4h[8:1],5,6,3h[8:1],5,4,
2,4,6h[8:1],2h[4:1],,,
8-6>5[4:1],8,8,8-3<4[4:1],8,8,1-7<6[4:1],1,1,1-4<5[4:1],1,1/5-8>1[4:1],
,,,,
7h[8:1],5,4,3h[8:1],4,5,6h[8:1],3,4,5h[8:1],4,3-7[1:1],,,,,
5-1[1:1]/3-7[4:1],3,3,5,5,5-1[4:1],3,3,3,5,4,3,2,,
1b/5b,,
2h[8:1],4,5,6h[8:1],5,4,3h[8:1],6,5,4h[8:1],5,6-2[1:1],,,,,
4-8[1:1]/6-2[4:1],6,6,4,4,4-8[4:1],6,6,6,4,5,6,7,,
8b/4b,,,,
1q5[4:1],,5>1[2:1]/5<7[1:1],,,,,,,,,,1b,,
3b/4b,,
8p4[4:1],,4<8[2:1]/4>2[1:1],,,,,,,,,,8b,,
6b/5b,,
1pp5[4:1],,5>1[2:1]/5<7[1:1],,,,,,,,,,1b,,
3b/4b,,
8qq4[4:1],,4<8[2:1]/4>2[1:1],,,,,,,,,,8b,,
6b/5b,,
2>5[8:1],1,8,7<4[8:1],8,1-3[8:1],8q4[4:1],7-5[2:1],
,,,,,,,,
7<4[8:1],8,1,2>5[8:1],1,8-6[8:1],1p5[4:1],2-4[2:1],,,,,,,,,
2>5[8:1],1,8,7<4[8:1],8,1-3[8:1],8q4[4:1],7qq5[2:1],
,,,,,,,,
7<4[8:1],8,1,2>5[8:1],1,8,7-4[8:1],8,2-5[8:1],1,8,7,
8b/7b,6b/5b,4b/3b,2b/1b,
6`8/1`4,,,3`1/8`5,,,7`5/4`1,,,2`4/5`8,,,
8`2`6`4,,1`7`3`5,,{64}62,53,4h[32:1],5h[10:35],
,,,,,,,,,,,,,,,,,,,,,,,,,,,,,,,,,,,,,,,,,,,,,,,,,,,,,,,,,,,,,,,,,,,,,,,,,,,,
,,,,,,,,,,,,,,,,,,,,,,,,,,,,,,,,,,,,,,,,,,,,,,,,,,,,,,,,,,,,,,,,,,,,,,,,,,,,,,,,,,,,,
,,,,,,,,,,,,,,,,,,,,,,,,,,,,,,,,,,,,,,,,,,,,,,,,,,,,,,,,,,,,,,,,,,,,,,,,,,,{8}
2q7[4:1],1,8q5[3:1],7,6q3[2:1],5,4q1[1:1],3,,,,,,,,,
3q8[4:1],2,1q6[3:1],8,7q4[2:1],6,5q2[1:1],4,,,,,,,,,
3q8[4:1],2,1q6[3:1],8,7q4[2:1],6,5q2[1:1],4,,,,,,,,,
4q1[4:1],3,2q7[3:1],1,8q5[2:1],7,6bq6[1:1],5,,,,,,,,,
4,4,4h[16:1]/1h[16:1],4,4,4h[16:1]/7h[32:1],4,4,4h[16:1]/2h[32:1],4,4,4h[16:1]/7h[64:1],4,4,4h[16:1]/3h[8:1],4,4,4h[16:1]/1h[4:1],4,4,4h[16:1]/6h[8:1],4,4,4h[16:1]/5h[32:1],4,4,4h[16:1]/6h[32:1],4,4,4h[16:1]/1h[4:1],4,4,4h[16:1]/5h[4:1],4,4,4h[16:1]/7h[64:1],4,4,4h[16:1]/3h[64:1],4,4,4h[16:1]/5h[32:1],4,4,4h[16:1]/1h[4:1],4,4,4h[16:1]/2h[32:1],4,4,4h[16:1]/6h[64:1],4,4,4h[16:1]/5h[8:1],4,4,4h[16:1]/4h[16:1]
{32}
4h[32:1]/3,35,26,
E
