&title=Kaguya (かねこちはる Remix)
&artist=BlackY,かねこちはる
&first=0.013
&des=かえで
&lv_5=14
&des_5=かえで
&inote_5=
(175){4},,,,,,,,{1}8bh[4:7]/1b-7-2-6-3-5b[2:3],
,7b-5-8[2:1]/2b-5-1[2:1],
{16}4,2,8,1,7,5,6,4,{12}5,1,1,4,7,7,
{8}8h[4:1]/6h[4:1],,,7h[4:1]/5h[4:1],,,{4}6h[4:1]/4h[4:1],
{8},5h[4:1]/3h[4:1],{16},,,,1,8,2,7,4bw8b[8:1],5,3,6,
{1}Cf,
{8},,,,,,,,5b/2b,
2<7[8:1],3,4,4,5,5V38[16:3],6,
8,7,6,5/1,{4}2-5[8:1]/6-1[8:1],6/2,
{8}8/4,7-4[8:1],6,8,1,2,3-5v8[16:3],8,
7,6,6,6,{4}8-4[8:1]/7-3[8:1],7/8,
{16}6,5,6,4,5,4,7,5,6,3,5,4,{4}6bh[8:1],
{16}3,4,3,5,4,5,2,4,3,6,4,5,{4}3bh[8:1],
{16}7,8,6,2,1,3,7,5,6,2,4,3,{4}8b,
{16}6,5,6,4,5,4,7,5,6,3,5,4,{4}7x-2[8:1]/3x-6b[8:1],
{1}7b/3b/E8/Cf/E4,
{4},E8h[4:3],C,E4,
1b-5[8:1],{8}8/1,7-4[8:1],,7/3-8[8:1],,6/3,
{16},,1/6-8[8:1],2,{8}3,6-4[8:1],,3/6,,2v5[8:1],
{4}5-3-1[8:1],{8}8,8-4[8:1],,8/1V35[16:3],,6h[8:3],
{16},,,,7,8,1,2,3/5,6,7,8,1/2,3,{8}4,
{4}8bV64[8:1],{8}8,2-4[8:1],,2-6[8:1],,2/8h[4:1],
{16},,,,6x/2xv5[0.3429##0.1714],3x/7x,{8}8x/4x,{4}2/6-1b[8:1],6b,
3>8[8:1],{8}6,6-2b[8:1],,6/8-3[8:1]*-5[8:1],,8/B6/Cf/B2,
{16},,,,7,8,1,2,3/5,6,7,8,1/5,2/6,7/3,8/4,
{4}5/1b-5[8:1],{8}8/1,7-4[8:1],,7/1,2,3,
2-5[8:1],{16}6,7,{8}8/2,6,2/7-4[8:1],6,7/8,1,
{4}2-6[8:1],{8}1/2,8,3/7-4[8:1],2,7/1,8,
{4}1>4[8:1],{16}6,7,8,1,5,6,7,8,4,5,6,7,
{4}8b/1b-5[8:1],{8}1/7-4[8:1],6,7/3-8[8:1],2,3,6b-2b[8:1],
,6b/1b<6[8:1],,4b-1[8:1]*-7[8:1],,4b/E7/Cf/E2,,,{4}8bV24[8:1],
{8}7/8,6b-2[8:1],,6/4-8[8:1],,4b/6bh[4:3],
,1,1,2,2,3,{32}3b-7[8:1],4,5,6,7,8,1,2,
{8}3/5bh[4:1]/Cf,,,,,1h[8:1]/E6,,8h[8:5]/B3f,
{16},,,,,,,,,,3,2,1/8,7,6,5,
2b,1,3,8,5,6,2,1,3-1[8:1],4,1-5b[8:1],8,{4}3,
{16}8,7,6,5/4,3,2,1/5,6,7,8/1,2,3,{8}4/6,4/6,
{16}3x,4,1,6x,5,8,3x,4,1,6x,7,5,{8}1,3/5,
{16}6x,5,7,3x,4,1,6x,5,8,3x,4,2,{8}8,6/4,
{16}7x,8,6,2x,1,3,7x,5,6,2x,4,3,8,7,{8}6h[8:1],
,5>1[8:1],5,7,6-1[8:1],2v5b[8:1],6,2,
{16},,,7,{8}1,6<1[8:1],6,3<6[8:1],3,7,
{16}8-5[8:1],,,2,{8}8<3[4:1],3,8/2,2,1,1,
{16}8>3[8:1],,,7,{8}8,4<7[8:1],4,1>4[8:1],1,8,
{16}7-4[8:1],,,8,{8}7-3-5-8[8:3],2,7,1,2,3,
{16}1,2,7,8,5,6,3,4,1,2,7,8,5,6,{8}7/3,
8x/4x,7xh/3xh,6xh/2xh,5xh/1xh,{32}1b,2,3,4,5,6,7,8,{4}5/1b-5b[8:1],
1b/7b-3b[8:1],7b/2b-5b[8:1],2b/8b-4b[8:1],{8}8b,1bpp4[8:5],
{32},,,,,,,,5,6,7,8h[32:21],{4},,{16},,{1}2bx>1[2:3],
,2>8[8:13],
,1xpp5[2:5],
8xh,
7xh[16:1],
4x>6b[4:3],
{2}4V28[8:3],5-7[16:3],
{8}1v4[4:1],,,8V64[4:1],,,{4}3-8[16:3],
{2}3h[2:1],5pp8[1:1],
{4}2,{16}2,3,{8}4h[8:3],,,,,6h[4:1]/2h[4:1],
,,3h[4:1]/7<1[2:1],,,{4}8,
{8}7,6,,5/4,{2}5<8[8:1]/4>1[8:1],
{1}B7/B6/B2/B3/E3/E7/Ch[4:7],
{16},,,,,,,,,,,,,,,,3,
4,2,5,3,4,{8}2,{16}7,8,6,1,7,8,{8}6,
{16}2,1,3,8,2,7,{8}1h[8:1],{16}8x,7,6/5,4,3,2,{8}5/1,
{24}8,4,8,4,8,4,8,4,8,4,8,4,8,4,8,4,8,4,8,4,8,4,8,4,
{16}8,4b,,,,,,,{2}Ch[2:1],
{16}2-6[8:1],,,1,{8}2,8,{16}5>2[8:1],,,7,{8}5,6,
5-7[8:1],6,8-4[8:1],1,8/2-5[8:1],1,{4}2/6,
{8}7>1[8:1],{16}4,4,{8}7v4b[8:1],3-1[8:1],7<5[8:1],3,{4}7,
2bh[4:1],{16}6,8,5,2,4,3,1,8,7,6,{8}1,
{4}7b<4[8:1]/3b>8[8:1],7/3-7[8:1],3/1-6[8:1]*-4[8:1],1,
5bx/3bx-7[8:1],3/5<2[8:1],4-7[8:1]*-1[8:1],4b,
{16}2>5[8:1],1,{8}1,2b,7,{16}7<4[8:1],8,{8}8,{4}7b,
{16}2bv5[8:1]/8bv5[8:1],3/7,{8}4/6,{4}2b/8b,{16}8,1,2,3,4/8,5/1,2/6,7/3,
{4}8b<5[8:1]/4b>1[8:1],8/4-8[8:1],4/2-7[8:1]*-5[8:1],2,
6bx/4bx-8[8:1],4/6<3[8:1],5-8[8:1]*-2[8:1],5b,
3-1[8:1],3/4-7[8:1],4/8-2[8:1]*-3[8:1],8-6[8:1]*-5[8:1],
8,{24}1,2,3,4,2,3,4,5,6,7,8/2,3,4,5,6,7,8,1,
{8}2-5[8:1],5V38[4:1],{4}2/7-3[8:1],7,5,
{8}1-6[8:1]/6-2[8:1],8/5,{4}6/1,7-4[8:1]/3-8[8:1],7b/3b,
{8}5b/1b,8h[8:1],{16}7,6,5/1,4,{8}3/7,1h[8:1],{16}2,3,4/8,5,
6/2,7/3,{8}8/4,{16}2,1,2,1,6,5,6,5,8,7,8,7,
3b,4,3,4,2,6,2,6,8,7,8,7,1,5,1,5,
2,4,2,4,3,5,3,5,4,6,4,6,5,7,5,7,
2,8,2,8,2,6,2,6,2,4,2,4,2,6,2,6,
2,5,3,6,4,7,4,7,2,5,2,5,4,6,3,5,
2,4,3,5,4,6,5,7,1,8,2,2,8,3,7,4,
6,5,7,2,6,3,5,4,6,1,5,2,4,2,4,1,
4,8,5,8,6,8,7,8,6,6,2,5,3,4,2,5,
2b,1,8,7,3b,2,1,8,5b,4,3,2,5b,4,{8}3,
{4}2<7[8:1]/7<4[8:1],2/7-1-3-5[4:1],6,8-3[8:1]*-5[8:1],
8b,6/2,{16}7,5,7,5,8,7,6,5,
1b,2,3,4,1b/5b,2,3,4,5b/8b,7,6,5,4b/8b,7,6,5,
{4}4>6[6:1],5-2[8:1]*-8[8:1],5,7/3,
{16}5,6,4,7,3,6,5,2,4,3,1,8,7,6,4,1,
5b,6,4,7,3b,8,2,1,8b,1,7,2,6b,3,5,4,
{1}5>5b[4:3]*<5[4:3],
{16},,,,7,7,3,3,5,5,1w5b[8:1],1,,,{8}1b/Cf/B7/B3,
E
