&title=the world of scarlet (saturated ex)
&artist=OfficialAz3
&first=0.038
&des=silentLy
&lv_5=14.3
&des_5=silentLy
&inote_5=
(210){4},{1},,,{4},,,{16}B8,
B1,{8}E2,,,,,,,,,,,,,,,E1,
B1,B2,E3,,,,,B8,
B2,B6,B4,{16},,,,,,,,B8,
B7,{8}E7,{1},{4},,,{16}E7,
B6,{8}B5,,,,,,,{1}B5/E5/B4,
8qq5[4:5],
{16},,,,,,,,1pp4[4:7],,,,,,,E8,
,,,,{4}E7,,,,,{2}7-2[4:1],
,6-3[4:1],
,8p5[1:2],
{1}1q4[2:3],
{2},,8h[4:1],
1h[4:1],
6h[4:1],3h[4:1],
5h[4:1],4h[4:1],
7h[4:1],2h[4:1],
{4}6h[4:1],Ch[4:1],{2}6h[4:1],
3h[4:1],3h[4:1],
7h[4:1],2h[4:1],
8h[4:1],1h[4:1],
{4}8x-3[4:1],3x-6[4:1],6x-1[4:1],1x-4[4:1],
4x-7[4:1],7x-2[4:1],{2}2x-5[4:1],
{4}1x-6[4:1],6x-3[4:1],3x-8[4:1],8x-5[4:1],
5x-2[4:1],2x-7[4:1],{2}7x-4[4:1],
{1}8h[2:1],
1h[2:1],
7h[4:7]/2h[4:7],
{4},,,,E7/E6,
B6,B7/B5,{8}B7,B5,
E7,E6,{4}B6,{2}E8/E5,
{4}E3/E4,B3,B4/B2,{8}B4,B2,
E4,E3,{4}B3,{2}E5/E2,
{4}B5/B4,E5,B6/B3,{8}B6,B3,
B5,B4,{4}E5,{2}E7/E3,
{4}B7/E8/B8,B1/E2/B2,{8}E8,E2,E7,E3,
{4}B6/E6,B3/E4,{8}E8,B8,B1,E2,
6,5,6,5,{4}6/5,{8}3,4,
3,4,{4}4/3,{8},,,,8,
7,8,7,{4}7/8,{8}1,2,
1,2,{4}2/1,,,7h[8:1],
8h[8:1],6,2h[8:1],
1h[8:1],4x,,,E7/B7/B6,
B2/E3/B3,{8}B8/B1,B7/B2,B6/B3,B5/B4,
{4}E8/B7/B8,B1/E2/B2,{16}B8,B1,B7,B2,B6,B3,B5,B4,
{2}Ch[4:1],{8}7,2,5,4,
B7,B2,B6,B3,8,1,6,3,
8-5[16:3],1-4[16:1],8,1,7bx,7,2,2,
6,5,3,4,6bx/4bx,6/4,5/3,5/3,
B6,E7,B3,E3,1bx/8bx,7,5,6,
4/5,4,2,3,{2}8bx/1bx,
E8/E7/B6/E6/B5/E5/B4/B7/E4/E3/B2/E2/B1/E1/B8/B3/Ch[8:1],{8}7/5,6,{4}4h[8:1],
{8}2/4,3,{4}5h[8:1],2h[8:1]/C,{8}7h[16:1]/C,4h[16:1]/C,
,,,,8,1,6,3,
B7,B2,B5,B4,7,2,5,4,
B6/B7/E7,B2/E3/B3,{4}Ch[8:1],{8}8bx/1bx,2,4,3,
5/4,5,7,6,1bx/8bx,B7,B2,E1,
{4}Ch[8:1],{8}7h[8:1],1h[8:1],8h[8:1],2h[8:1],4x,3h[8:1],
7h[8:1],5x,6h[8:1],3h[8:1],5x,4h[8:3],{4}5h[4:1],
{8},,5bx/4bx,5h[8:1],4h[8:1],5h[8:1],3x,6h[8:1],
5h[8:1],7h[8:1],3h[8:1],4h[8:1],2bx,8bx,1h[8:1],7bx,
{2}Cf,{4}6bxh[8:1]/5bxh[8:1],5bxh[8:1]/4bxh[8:1],
4bxh[8:1]/3bxh[8:1],7bxh[8:1]/4bxh[8:1],4bxh[8:1]/2bxh[8:1],8bxh[8:1]/3bxh[8:1],
{8}B8,B6,B1,B3,1-7[16:1],5,1-3[16:1],5,
1-7[16:1],5,1-3[16:1],5,1-7[16:1],5,,5,
E5,B5/B4,B6/B3,E7/E3,{4}8-4[8:1],8,
{8},1-5b[4:1],{4}1,{8}1bx,,,1,
,,,,7,1,{4}8,
{8}2,8,{4}1,{8}7bx/1bx,1bx/7bx,8bx/2bx,8bx/2bx,
B3,B4,B5,B6,{4}3bxh[8:1]/4bxh[8:1],4bxh[8:1]/5bxh[8:1],
5bxh[8:1]/6bxh[8:1],2bxh[8:1]/5bxh[8:1],5bxh[8:1]/7bxh[8:1],1bxh[8:1]/6bxh[8:1],
{8}B6,B5,B4,B3,8-6[16:1],4,8-2[16:1],4,
8-6[16:1],4,8-2[16:1],4,8-6[16:1],4,,4,
A3,A2,A1,D1,D8,D7,D6,D5,
D4,D3,D2,E1,E8,E7,E6,E5,
E4,E3,E2,B1,B8,B7,B6,B5,
B4,B3,B2,C,{2}2bx/7bx,
,,,,,8h[8:5],
,1h[4:1],
{1}7h[4:7],
,6h[4:7],
{2},,,,,,,2h[4:3],
{4},,1h[4:1],8h[4:1],
{8},3xh[8:29],{1},,,,,,{4},{2}8h[4:3],
,1h[4:1],
{1}7h[4:7],
,6h[4:7],
,Ch[4:15],
,,,Ch[4:15],
,,,E1/B8/E7/B6/B7/B5/E5/B4/E3/B3/B2/B1/Cf,
{8},,,,,,,,4,
5,{4}3,,,4,
{8}7,8,{4}6,2,
{1}Ch[4:3],
{4},1,{2}Ch[4:1],
{8}5,3,{4}6,,,6,
{8}2,1,{4}3,5,
Ch[2:1],,,C,
{2}Ch[4:1],{8}2,2,2,5,
4/5,6,{4}2,,,3,
{8}8,1,{4}5,C,
Ch[4:3],,,7,
,1h[2:1],{8},,,,5/4,
3,{4}7,,,6,
{8}1,8,{4}4,C,
{2}Ch[4:1],{8}8<6[8:1],6>4[8:1],4>2[8:1],2<8[8:1],
{16},,,,,,,,E8,E2,B7,B2,E7,E3,B6,B3,
{4}5bx/4bx,5bx/4bx,{8}8/1,{16}6,5,{8}6,8/1,
{16}3,4,{8}3,8-4[16:1],1-5[16:1],8-6[16:1],1-3[16:1],8w4[8:1],1,
{2}8bx,{8}8<5[16:1],8,,,4>1[16:1],
4,,,1-6[16:1],1-4[16:1],{16},,,,7b,
B7,,,2b,B2,,,{8}1/8,{16}3,4,{8}3,1/8,
{16}6,5,{8}6,1-5[16:1],8-4[16:1],1-3[16:1],8-6[16:1],1,8,
1h[8:1],8h[8:1],2h[8:1],4h[8:1],{16}3xh[16:3],,,7xh[16:3],,,{8}5h[8:1],
6h[8:1],4h[4:1],{4}5h[8:1],6bx/3bx,Ch[8:1],
7b-4[8:1],{8}7b,2b,8-5[16:1],1,2,3-8[16:1],
4,5,6-3[16:1],7,{4}8,Ch[8:1],
{8}1-4[16:1],8,7,6-1[16:1],5,4,3-6[16:1],2,
{4}1,Ch[8:1],{8}B8,E3,E7,B4,
{2}8bs4[16:1]/1bz5[16:1],{8}8/7,7,7/6,6,
6/5,5,5/4,4,4/3,3,3/2,2,
A1,A8,E2,E8,B2,B7,B3,B6,
E4,E6,A4,A5,{2}6bx/3bx,
E
