&title=有頂天変 ~ Wonderful Heaven
&artist=東京アクティブNEETs
&first=0.642
&des=Kurage
&lv_5=14
&inote_5=(160)
{8}6,5,6,4,6,{16}7,8,,,,,
{8}3,4,3,5,3,{16}2,1,,,,,
{8}6,5,6,4,6,{16}7,8,,,,,
{8}7,8,7,1,7,{16}6,5,,,,,
{8}4,5,3,4,2,{16}1,8,,,,,
{8}5,4,6,5,7,{16}8,1,,,,,
{8}4,5,3,4,2,{16}1,8,,,,,
{8}6,5,7,3,{16}8,7,6,1,2,3,8,7,
{16}6h[16:3],,,5h[16:3],,,4,,5h[16:3],,,4h[16:3],,,3,,
{16}4h[16:3],,,3h[16:3],,,2,,{4}1-4[8:1]/8-5[8:1],,
{8}6h[8:1],5,47,6h[8:1],5,{16}3,4,{4}2-8[8:1],
{16}8,,,7-5[8:1],,,4,,,2-6[8:1],,,8,,,,
{8}7h[8:1],8,81,2,3/4pp7[4:2],,8>3[4:1],8,
{8},,,6,{16}4,5,4,,{8}36,,
{8}3h[8:1],4,52,3h[8:1],4,{16}6,5,{4}7-1[8:1],
{16}1,,,2-4[8:1],,,5,,,7-3[8:1],,,1,,,,
{8}2h[8:1],1,18,7,6b/5>2[8:1],,1,8b-4[8:1],
{8},3,3,,{16}7,5,6,5,7,,3,4,
{8}2>5[8:1],7,8,1<6[8:1],5-1[8:1],{16}4,4,{4},
{16}2<7[8:1]/7,,,3,,,4-1[8:1],,,5,,,6-2[8:1],,,,
{8}65,4,31,4,6/5qq2[4:2],,1<6[4:1],1,
{8},,,3,{16}5,4,5,,36,,,,
{8}7<4[8:1],2,1,8>3[8:1],4-8[8:1],{16}5,5,{4},
{16}7>2[8:1]/2,,,6,,,5-8[8:1],,,4,,,3-7[8:1],,,,
{8}34,5,68,5,3b/4<7[8:1],,8,1b-5[8:1],
{8},6,6,,24,,{16}4,3,5,4,
{4}6,76,86,16,2<7[8:3]/6,3,{8}4,4,5-8[8:1],,
{4}3,23,13,83,7>2[8:3]/3,6,{8}5,5,4-1[8:1],,
{4}6,76,86,16,2-7[4:1]/6,3,{8}4-8[8:1],,5-1[8:1],,
{4}2b-7[8:1]*p5[8:1],,8b-5[8:1]*p3[8:1],,
{4}6b-3[8:1]*p1[8:1],,4b-1[8:1]*p7[8:1],,
{4}8b-2[8:1]/7,7,8b-3[8:1]/7,7,8b-4[8:1]/7,7,8b-5[8:1]/7,7,
{16}3b/6b,,5,4,5,,27,,8b-4[8:1]/1b-5[8:1],,,,,,,,
{4}3h[4:1]/6b,{24}1,8,7,6,5,4,13,8,7,6,5,4,{4}3-8[8:1]/6-1[8:1],
{16}
3b-5[8:1]/6b,,,,3,7-3[8:1],,,78,,,2,1,,28,,
7/3<6[8:1],,8,,3,1-5[8:1],,,4-2[8:1],,3,,7>2[8:1],,6,,
17,,,4,8>3[8:1],,1,,28,,,5,1>7[8:3],,2,,
13,,,,8,,1,,2v1[8:1]/7v8[8:1],,,,2pp4[8:1]/7qq5[8:1],,,,
,,,,1-5[8:1],8,2,,6,,,7,8,,15,,
2-5[8:1]/4-8[8:1],,,,2/4>1[8:1],,,,4/7<4[8:1],,,,8w4[8:1]/7,,,,
8,,,,62,,5p8[8:1]/3q8[8:1],,4,,,,,,71,,
6,,7h[8:1]/5h[8:1],,,3h[8:1]/4h[8:1],,,8h[8:1]/2h[8:1],,,7h[8:1]/6h[8:1],,,41,,
6b<1[8:1],,5,,6,4-7[8:1],,,3/4-8[8:1],,,2,4,,1,,
3>8[8:1],,4,,3,5-2[8:1],,,6/5-1[8:1],,,7,5,,8,,
2/4h[8:1],,3,4,1,,7/8h[8:1],,6,8,4,,3V58[4:1]/6V41[4:1],,,,
36,,,,,,27,,1b/8b,,,,8b/5b,,6b/3b,,
4b>1[8:1]/1b,,5,4,6,,7-3[8:1],,8,7,1,,2-5[8:1],,1,,
8b-5[8:1]/2b-6[8:1],,,,8>3[8:1]/2,,,,8/4w8[8:1],,,,4,,,,
6bpp1[4:2]/2bpp5[4:2],,,,,,,,,,,,,,,,
7h[4:1],,8b,,{24}8,1,2,3,4,5,86,1,2,3,4,5,{4}6-1[8:1]/3-8[8:1],
{16}
6b-4[8:1]/3b,,,,6,2-6[8:1],,,21,,,7,8,,71,,
2/6>3[8:1],,1,,6,8-4[8:1],,,5-7[8:1],,6,,2<7[8:1],,3,,
82,,,5,1<6[8:1],,8,,71,,,4,8<2[8:3],,7,,
86,,,,1,,8,,7v8[8:1]/2v1[8:1],,,,7qq5[8:1]/2pp4[8:1],,,,
,,,,8-4[8:1],1,7,,3,,,2,1,,84,,
7-4[8:1]/5-1[8:1],,,,7/5<8[8:1],,,,5/2>5[8:1],,,,1w5[8:1]/2,,,,
1,,,,37,,4q1[8:1]/6p1[8:1],,5,,,,,,28,,
1,,{32}7b,6,5h[8:1],,,,3b,2,1h[8:1],,,,5b,6,7h[8:1],,,,1b,2,3h[8:1],,,,5,,,,
{16}
3b-7[8:1],,4,,3,5>2[8:1],,,6/5-1[8:1],,,7,5,,8,,
6-2[8:1],,5,,6,4<7[8:1],,,3/4-8[8:1],,,2,4,,1,,
7/5h[8:1],,6,5,8,,2/1h[8:1],,3,1,5,,2V48[4:1]/7V51[4:1],,,,
27,,,,,,36,,8b/1b,,,,1b/4b,,3b/6b,,
5b<8[8:1]/8b,,4,5,3,,2-6[8:1],,1,2,8,,7-4[8:1],,8,,
1b-4[8:1]/7b-3[8:1],,,,1b<6[8:1]/7b,,,,1b/5bw1[8:1],,,,5b,,,,
3bpp8[4:2]/7bpp4[4:2],,,,,,,,,,,,,,,,
{32}1,2,3,4,5,6,7,8,17,2,3,4,5,6,7,8,16,2,3,4,5,6,7,8,{4}1b/5b,
{8}3,4,3,5,3-5[8:1],{16}2,1,,,,,
{8}6,5,6,4,6-4[8:1],{16}7,8,,,,,
{8}3,4,3,5,3-5[8:1],{16}2,1,,,,,
{8}2,1,2,8,2-6[8:1],{16}3,4,,,,,
{8}5,4,6,5,7-5[8:1],{16}8,1,,,,,
{8}4,5,3,4,2-4[8:1],{16}1,8,,,,,
{8}5,4,6,5,7-5[8:1],{16}8,1,,,,,
{8}3,4,2,6,{16}3,4,1,6,5,8,3,4,
{16}1h[16:3],,,3h[16:3],,,4,,8h[16:3],,,6h[16:3],,,5,,
{32}1,2,3,4,5,6,7,8,1,2,3,4,5,6,7,8,{4}1w5[8:1],,
{1}3b/7b,
