&title=Superbia
&artist=Team Grimoire
&first=0.052
&des=LanyC
&lv_5=14
&des_5=LanyC
&inote_5=
(195){4},,,,,,,,{1}2h[1:1]/7h[1:1],
,6h[1:1]/3h[1:1],
,5h[2:7]/4h[2:7],
{4},,,,,,,,,,,,4,
3,2,1,
4/8,7,6,5,
4/2,3,5/7,{8}6,6,
{4}6,4,{16}7x,,,7,,,{8}7,
3,3,{4}3/5,4,2,
{8}8,4/6xh[8:1],,5h[8:1],,4h[8:1],,3h[8:1],
5,5,6,6,{2}2h[4:1]/7<3[8:1],
{1}1w5[3.3846##0.1538],
C,
{4},,,1x,
8x<5<8[2:1],2,{2}8p5[8:3],
{8}2h[4:1],{16}A5,D5,A4,D4,,,1xh[8:3]/D7,A6,D6,A5,D5,A4,D4,A3,
{4}8<4[8:1],8/2-4-6>1[8:5],{2}2,
{8}7h[4:1],{16}A1,D1,A8,D8,,,5xh[4:1]/D3,A2,D2,A1,D1,A8,D8,A7,
{4}4h[4:1],6-1-7-2>4[8:5],3h[8:1],{8}B2/B1,B3/B4,
{16},,A4,D5,A5,D6,,,7xh[4:1]/D3,A3,D4,A4,D5,A5,D6,A6,
{4}8h[4:1],{8}1-6[16:1],2,{4}1/3,{8}4,5/3,
{16}2x-6[16:1],,,8x-4[16:1],,,{8}1x-5[16:1],{16},7x-3[16:1],,,{8}4xV62[8:1],4x,
,,1x/3x,1,3,3,{4}2/8-4<7[4:1],
1>4[8:1],1-5<8[4:1],{16}1/A2,E3,{8}E4,{4}2xh[8:1],
7h[4:1]/5>2[8:1],5,{16}8,1,7,2,{4}6h[8:1],
{16}5,2,4,3,5,2,4,3,2xh[8:1]/6xh[8:1],,,8xh[8:1]/4xh[8:1],,,{8}2x/6x,
1x,1,5,5,{4}7/1-5>2[4:1],8<5[8:1],
8-4>1[4:1],{16}8/A7,E7,{8}E6,{4}7xh[8:1],2h[4:1]/4<7[8:1],
4,2<7[8:1]*>5[8:1],2,{16}A2,D3,A3,D4,
{8}7x/4x,{16}6,5,{8}6,5/2,{16}3,4,{8}3,{4}2h[8:1]/7h[8:1],
{2}5h[8:3]/4h[8:3],{8}6/3,{16}4,5,{8}4,6/3,
{16}5,4,{8}5,7/4,{24}5,6,5,{8}6,7/4,{24}5,6,5,6,,,{2}7h[8:3]/4h[8:3],
{8}3,{16}8,1,{8}8h[8:1],4,
{16}7,8,{8}7h[8:1],{4}5,{16}1/B5/A5,,,2/B6/A6,,,{8}3/B7/A7,
{2}4h[8:3]/8h[8:3],{8}3/7,{16}8,1,{8}8,2/7,
{16}1,8,{8}1,3/8,{24}1,2,1,{8}2,3/8,{24}1,2,1,2,,,{2}4h[8:3]/7h[8:3],
{8}7,{16}4,5,{8}4h[8:1],8,
{16}3,4,{8}3h[8:1],{4}1v4-2[16:5],{16}1/5bh[16:1],,,6bh[16:1],,,{8}7bh[16:1],
{2}3/1x<5[2:1],{4}1,2,
8<4[2:1],1,2,3,
6/1>5[2:1],8,7,6,
{8}7h[4:1]/1h[4:1],,,8/3,{4}1<5[8:1],1/2,
4x/2h[8:1],{8}5/1v4[8:1],2,{4}1/7<4[8:1],7,
2h[4:1]/8h[8:1],3h[4:1],4h[4:1],5h[8:1],
1b/6b,{8}2,3,{4}6/4h[8:1],2/8h[8:1],
{12}3,3,3,7,7,7,{32}1,2,3,4,5,6,7,8,1,2,3,4,5,6,7,8,
{1}5xh[4:7]/1<5v8-6-1[2.4615##2.4615]*>5v2-4-1[2.4615##2.4615],
,,,,,,,{4},,,{8}5,
6,
5,4,3,5,4,3,4,5,
4,5,{4}6q2[8:1],{8},,3,4,
5,6,3h[16:1],5h[16:1],4h[16:1],6h[16:1],7h[16:1],8h[16:1],
1-4-7[8:1],1,{16},,,,8x,1x,7,2,6,5,6,5,
8,2,7,1,4,3,4,3,7,1,8,2,4,3,6,5,
{8}8,8,{16}7x/3,6,5,4,1,8,2,7,3,4,3,4,
1,7,2,8,5,6,5,6,2,8,1,7,5,6,3,4,
{8}1,1,{16}2x/7,3,4,5,{4}6/7-2[16:1],7/5,
4-7[16:1]*-2[16:1],4,8/2-5[16:1],2/6,
8-2[16:1]*-5[16:1],8,{8}4/3,2,2,2,
1/8,7,7,7,6/5,4,3/7,2,
5/1,6,7/3,8,{16}1b,8b,1,8,1,8,1,8,
2,7,2,7,2,7,2,7,3,6,4,5,3,6,2,7,
1,8,2,7,3,6,4,5,{32}2bx,3,{16}4,{32}7xh[16:1],6xh[16:1],,,{8}7xh[16:1],{32}3xh[16:1],4xh[16:1],,,{8}3xh[16:1],
{32}6bx,7,{16}8,{32}2bx,3,{16}4xh[16:1],,,{2}B6/E7/B7/E3/B3/B2/Cfh[2:1],
{16},,A8,E8,E7,E6,{8}A5,{4}4x/3,{8}3h[8:1],7,
3h[8:1],6,3h[8:1],5,3h[8:1],4,3h[8:1],2,
3h[8:1],1,{4}3-7[16:1],3b/6h[8:1],{16}6h[8:1],4,,,6h[8:1],
5,,,6,5,6,7,{4}6-4[16:1],6/2,
{8}6h[8:1],1,{4}6-2[16:1],{8}3/6b,4,{4}3/8,
{8}6,3/5,2,6/2-5-1[4:1],{2}4/8h[4:1],
{8}8,7,{4}6/2,{8}6/4,5/3,4/2,5/3,
{16}6,5,6,4,6,3,6,2,{32}6bx,5,4,3,2,1,8,7,2x/6-4-8-3-7[8:3],5,4,3,2,1,8,7,
{2}6x,{8}2-4[16:1],6,2-8[16:1],7,
2-4[16:1],5,2-7[16:1],7,2-4[16:1],5,2,7,
3/5-1[16:1],6/4,{4}5/7h[8:1],{8}7-4[16:1],3,7-2[16:1],2,
7-3[16:1],4,7/3,{16}2x,1x,{4}5x/8x-6[16:1]*-2[16:1],8,
{24}5x,1x,5,1,5,1,{8}E7,E3,{4}E1/B8/B1/C/B5/B4/E5,3h[8:1]/7h[8:1],
{16},2h[8:1]/6h[8:1],,,,,{8}5h[8:1]/1h[8:1],{16},,,6h[8:1]/7h[8:1],,,,,{4}2h[8:1]/3h[8:1],
6x/2x,{8}5/4,{16}5,4,7,2,{8}5,
{16}6/4,,,7/3,,,{8}8/2,{32}1x,2,3,4,1x,8,7,6,{4}5x<8-2[16:3]/1x>4-6[16:3],
{8},,,,4b/8b,2b/7b-2-6-3b[8:3],,,,,,,5b/1b,
7b/2b-5-8-3b[8:3],,,,,,,4b/6b,
7b/3b,,,5b/3b,
6b/2b,,,{4}7h[8:1]/8h[8:1],2h[8:1]/1h[8:1],
{8}3/4b,4/3b,5b/6,6b/5,{2}3h[4:1]/8h[4:1],
{4}2>5[16:1]/1<6[16:1],2/1,{16}5x,6x,5,6,5,6,5,6,
5,6,5,6,5,6,5,6,{32}4x/7x,3,2,1,8,7,6,5,4,3,2,1,8,7,6,5,
{16}4bx,5x,6x,7x,8x,1x,2x,3x,{2}4bxw8b[1.8462##0.3077],
{4},,,,,,6h[8:1]/2h[8:1],
{16}2-5[16:1],5,1,4,
{8}2,{16}7,8,{8}6,1,{16}5,3,6,4,7-4[16:1],5,6,8,
{8}7,2,{4}1-5[16:1]/6-8[16:1],{16}1/6,,,4,,,{8}3,
2/7,3/8,{4}4/1,{16}3/B7/B8,,,6/B1/B2,,,{8}4/C,
{16}3>8[8:1],5,2,4,{4}3,6h[4:1],{8}5,{16}3,6,
{8}3,4,7/3qq4<6[16:7],2,3/8h[4:1],{16},,,,1bx,8,
{4}7h[8:1],{8}6/5,3/4,{16}3,4,2,6,5,7,1,8,
2,1,3,7,8,6,4,5,6/8,,,4/2,,,{8}5/7,
{16},1/3,,,{4}B6/B2,3h[8:1]/7h[8:1],{16}7-4[16:1],4,8,5,
{8}7,{16}2,1,{8}3,8,{16}4,6,3,5,2-5[16:1],4,3,1,
{8}2,7,{4}8-4[16:1]/3-1[16:1],{16}8/3,,,5,,,{8}6,
7/2,6/1,{4}5/8,{16}6/E1/B8/B1,,,6/B2/E3/B3,,,{8}6/B5/B4/E5,
{16}7<4-8[4:1],1,6,8,{4}7,1h[8:1],{16}8-4[16:1],7,{8}6/1-3[16:1],
8-6[16:1],1-5[16:1],,,6x,5x,4/8,3/7,
2,4/2,7,7/5,{16}2,5,3,6,4,7,5,6,
8,7,1,8,2,7,{8}1,{32}1bx,2,3,4,,,8b,7,6,5,,,2b,E3,B3,B4,
,,7b,E7,B6,B5,,,2b,3,{16}4,{32}7b,6,{16}5,{2}2bxh[8:3]/4bxh[8:3],
{8}7,{16}4,5,{8}4,8,{16}3,4,{8}3,1,{24}3,4,3,
{8}4,8,{24}5,6,5,6,,,{2}7bh[8:3]/5bh[8:3],
{8}3,{16}8,1,{8}8,4,{16}8,1,{8}8,{4}5h[8:1],
{16}6h[16:1]/4h[16:1],,,7h[16:1]/5h[16:1],,,{8}6h[16:1]/8h[16:1],{2}3bh[8:3]/1bh[8:3],
{8}7,{16}4,4,{8}4,7,{16}5,5,{8}5,7,{24}3,4,3,
{8}4,7,{24}4,5,4,5,,,{2}5bh[8:3]/4bh[8:3],
{12}6x/3x,{24}5,4,5,4,{48},,,{16}6x/3x,{48},,{24}5,4,5h[24:1],4h[24:1],{48},,,,,{16}2x/7x,,,,,6b/3b,
,,7b/2b,{32},,,,8b/1b,2/7,3/6,4/5,{1},{32}4bx/8bxz4[4.6154##0.3077]*z4[4.6154##0.3077],
3/7,2/6,1h[32:115]/5h[32:115],
E
