&title=Manic Jeer
&artist=LuzeriA
&first=-0.672
&des=BITF
&lv_5=14
&des_5=BITF
&inote_5=
(195){4},,,,{32}6b/3b,
4xqq1[32:31]/5xpp8[32:31],{1},{4},,,{16},{8}8b/1b,
{4}8b/1b,,,8b/1b,
{32},,,,,,,,E2,B2,B3,E4,E8,B7,B6,E6,,,,,,,,,{16}6,5,6,5,
{8}6/3,{16}2,1,{8}2,6/3,6/3,{16}7,8,{8}7,6/3,
6/3,{16}2,8,{8}2,6/3,3/6,{16}7,1,{8}7,6/3,
8/1,8/1,7/2,7/2,3/6,3/6,5/4,5/4,
{16}2,8,2,8,3,7,3,7,4,6,4,6,5,5,5,5,
{4}5bz1[4:7],,,7h[8:1],
,,3,3h[8:1],
{8}4z8[8:13],,,6,,,{4}7h[8:1],
{8},2,2,3,3,2,{4}2h[8:1],
3qq7[4:3],{8}5,5,5,5,{4}5,
6pp2[4:3],{8}4,4,4,4,{4}4,
{8}3,3,6,6,4,4,5,5,
3,6,4,5,8/1,8/1,{4}2/7,
{8}5/4,5/4,3/6,3/6,7/2,{16}1,8,,1,{8}8,
{4}2/7,8-5[8:1]/1-4[8:1],{8},,,,4/5,
5/4,3/6,3/6,{4}7/2,8/1,
7/C,2/C,6/C,3/C,
{8}8/1,8/1,2/7,2/7,6/3,{16}5,4,,6,{8}3,
4v1[4:1]/5q1[4:1],,,,,E8/E2,E7/E3,E6/E4,
E5,E6,E7,E8,E1,E2,E3,4h[16:1],
{16},6h[16:1],,,2h[16:1],,,8h[16:1],,,{8}1h[16:1],{16},,,,4,
6,4,6,4,6,4,6,4,6,4,6,4,6,4,6,
3,7,3,7,3,7,3,7,3,7,3,7,3,7,3,7,
2,8,2,8,2,8,2,8,2,8,2,8,2,8,2,8,
{4}1-5[8:1],1,{2}8b,
{16}5,3,5,3,5,3,5,3,5,3,5,3,5,3,5,3,
6,2,6,2,6,2,6,2,7,1,7,1,7,1,7,1,
{12}8x,8x,8x,8x,8x,8x,{24}8x,1,2,3,4,5,8,7,6,5,4,3,
{2}1b,{16}6,5,{8}6,{16}3,4,{8}3,
{1}8p5<8b[4:7]/1q4>1b[4:7],
,,{4},,{8},{16}1,
8,,1,{8}8,
5/6h[8:1],1,4/3h[8:1],8,,,{4}6h[8:1],
{8}4/3h[8:1],7,5/6h[8:1],2,{16},,,,1,8,1,8,
3,4,{8}3,{16}6,5,{8}6,{16}2,5,{8}2,{16}7,4,{8}7,
{6}1/2,3/8,4/7,6b-1[8:1]/5b-2[8:1],{24},,,,,,,,{8}4/3h[8:1],
8,{16}2,1,{8}2,5/6h[8:1],1,{16}7,8,{8}7,
4/3h[8:1],7,{16}2,8,{8}2,5/6h[8:1],2,{16}7,1,{8}7,
{32}E2,B2,B3,E4,E8,B7,B6,E6,{8}3,2/4,6,7/5,{16}4,5,4,5,
2,6,2,7,3,7,2,6,2,7,3,7,1,8,1,8,
{1}1bv8-6[4:5]*v2-4[4:5],
{8},,,,,,,,4/5,
4/5,4/5,{16}3,4,{8}3,4/5,{16}6,5,{8}6,
{24}3,5,{12}3,{24}6,4,{12}6,{24}3,5,{12}3,{24}6,4,{12}6,,,,,{4}8/7,
8/7,1/2,2/1,
{8}7/2,7/2,7/2,7/2,8/1,8/1,1/8,8/1,
{16}6,3,6,3,5,3,5,3,4,3,4,3,3,3,3,3,
{4},,,{24},E6,B6/B5,B7/C/B4,B8/B3,B1/B2/E2,
,,,,,,E1,B8,B7,E7,,,E5,B4,B3,E3,,,E7,B6,B5,E5,,,{1}8b/1b,
{2},6,
{1}5/4,
{2}5,{4}4,4,
{1}1/3h[8:13],
{4},4,{8},5,,,{1}8/6h[4:7],
{4},5,4,3,
{8}2,1,2,1,{4}2-4[8:1],2,
{8}7,8,7,8,{4}7-5[8:1],7,
1/2,1/2,8/7,8/7,
1/2,8/7,{2}8-5[16:1]/1-4[16:1],
{4}3<5[4:1],5<7[4:1],7>1[4:1],1>5[4:1],
5<1[4:1],1>5[4:1],5<1[4:1],1,
6-2[8:1],4h[8:1],3-7[8:1],5h[8:1],
8/2,7/1,{2}8-5[16:1]/1-4[16:1],
{4}8/6,5/4,1/3,5/4,
6/8,5/4,1/3,{8}5/4,2/7,
,7/2,{4}4/5,6/8,5/4,
1/3,5/4,{16}2,8,1,8,{4}2b,
{16}3,5,3,5,{4}4h[4:1],{16}5,3,5,3,{4}4h[4:1],
{16}3,5,3,5,{8}4h[8:1],{16}6,5,6,5,{8}6h[8:1],{16}2,4,{8}3h[8:1],
{16}6,4,6,4,{4}5h[4:1],{16}4,6,4,6,{4}5h[4:1],
{16}6,4,6,4,{8}5h[8:1],{16}3,4,3,4,{8}3h[8:1],{16}7,5,{8}6h[8:1],
{16}3,4,3,4,3,4,{8}3h[8:1],{16}6,5,6,5,6,5,{8}6h[8:1],
{16}3,4,3,4,{8}3h[8:1],{16}6,5,6,5,{8}6h[8:1],{16}2,4,{8}3h[8:1],
6h[8:1],{16}3,4,2,5,3,4,{8}2h[8:1],{16}6,5,7,4,6,5,
{8}7h[8:1],{16}3,4,{8}2h[8:1],{16}6,5,{8}7h[8:1],{16}3,5,4,6,{8}3h[8:1],
{16}6,5,7,4,6,5,{8}7h[8:1],{16}3,4,2,5,3,4,{8}2h[8:1],
{16}6,5,{8}7h[8:1],{16}3,4,{8}2h[8:1],{16}6,4,5,3,6,4,5,3,
{4}6h[4:1],{8}4,3h[4:1],,5,{4}6h[4:1],
{16}1,1,1,1,1,1,{8}1,{16}8,8,8,8,8,8,{8}8,
{16}3,4,3,4,{4}2h[4:1],{16}4,3,4,3,{4}5h[4:1],
{16}3,4,3,4,{8}2h[8:1],{16}6,5,6,5,{8}7h[8:1],{16}3,4,{8}2h[8:1],
{16}6,5,6,5,{4}7h[4:1],{16}5,6,5,6,{4}4h[4:1],
{16}6,5,6,5,{8}7h[8:1],{16}3,4,3,4,{8}2h[8:1],{16}6,5,{8}7h[8:1],
{16}2,,,8/1,,,{8}7/6,{16},5/4,,,2/3,,,8/7,
,,{8}6/5,{16},3/4,,,1/2,,,8/6,,,{8}1/3,
{16}4,5,4,5,{4}4,{16}6,3,6,3,{4}6,
{16}8,8,8,8,8,8,{8}8,{16}1,1,1,1,1,1,{8}1,
{1}2bx-4[2:3]/7bx-5[2:3],
{4},,,,7-4[8:1],
7,2-5[8:1],2,
8-4[8:1],8,1-5[8:1],1,
7-4[8:1],{8}7,8,,8,{4}7,
2-5[8:1],{8}2,1,,1,{4}2,
{2}7-2[8:1],3-6[8:1],
{4}8-4[8:1],1-5[8:1],7-4[8:1],2,
1pp5[2:1],{8}7,7,,6,,,{4}8qq4[2:1],
{8}2,2,,3,,,{2}8-5[8:1],
1-4[8:1],
{4}8<4[4:1],4>8[4:1],8-4[4:1],4,
{8}2,2,2,2,{16}2,4,2,4,{8}2,2,
7,7,7,7,{16}7,5,7,5,{8}7,7,
3,{16}3,5,{8}3,3,6,{16}6,4,{8}6,6,
{16}3,4,{8}3,{16}6,5,{32}6/E4,B3,B2,E2,E6,B6,B7,E8,{8}Ch[8:1],,,7/2,
{16}8,1,{8}8,7/2,6/3,{16}4,5,{8}4,3/6,
7/2,{16}8,1,{8}8,7/2,3/6,{16}4,5,{8}4,6/3,
1/8,2/7,3/6,5/4,7/8,6/5,1/2,3/4,
{16}6,4,6,4,6,4,6,4,7,3,7,3,8,2,8,2,
1,1,1,1,1,1,1,1,1,1,1,1,1,1,1,1,
1,1,1,1,1,1,1,1,1,1,1,1,1,1,1,1,
{2}1bqq5[4:1]*pp5[4:1],{16}A5,A6,A7,A8,A1,A2,A3,A4,
{8}7/2,{16}1,8,{8}1,2/7,7/2,{16}1,8,,1,{8}8,
,,7b/1b,8b/2b,7b/1b,8b/2b,{32},,,,,,,,,,,,,,,,E8,
B7,B6,E6,E2,B2,B3,E4,B8,B7,B6,B5,B1,B2,B3,B4,,,,,,,,,{16}8b,
8b,8b,8b,{8}7/1,6/2,
E
