&title=fragmentation
&artist=milky knight/维度坍缩
&first=-0.109
&des=白洁
&lv_5=14+
&des_5=白洁
&inote_5=
(100){4},{8},,,,,E7,
{16},E5,,,E3,,,E1h[16:0],,,{8}7h[16:3]/4h[16:3],{16},,,7h[4:1]/4-2[16:1],
,,,4,{32},,,,,7h[16:3]/E1,,,,,,E3,,,,7h[16:5],,E5,E6,E7,E8,E1,,3x,
,5x,,7x,,6xh[16:3]/1xh[16:3],,,,,,,,,,1h[4:1]/6-4[16:1],,,,,,,,6x,,,,,,,{16}1h[16:3]/E8,
,,{8}E6,{16}1h[16:5],{32}E4,E3,E2,E1,{16}E8,6,4,2,8h[16:3]/3h[16:3],,,,,{4}8h[4:1]/3>1[16:1],
{32}3,,,,,,,3/8h[16:3],,,,,,1,,,,8h[16:5],,7,6,5,4,3,
,1,,7,,5,,,{4}2h[16:3]/5h[16:3],{16},2h[4:1]/5>3[16:1],,,,5,,,5/2h[16:3],
,,3,,2h[16:5],{32}1,8,7,6,{16}5,3,1,7,{32},5h[32:1]/3h[16:3],,,,5h[32:1],,,,5h[32:1],
,3h[16:3],,5h[32:1],,,,5h[16:3],,2,,8,,6,,,{16}5h[32:1]/4h[8:1],,5h[32:1],,5h[32:1]/4h[8:3],{32},,E6,E7,
E8,E1,{16}E2,3,5,7,1h[32:1]/3h[16:3],,1h[32:1],,1h[32:1],3h[32:7],1h[32:1],,1h[16:3],{32},4,,6,
,8,,8xh[32:3]/2xh[16:3],,,,,,7h[32:3],,,,3h,,6h[32:3],A8,A1,A2,A3,A4,5h[32:3],{16}3x,1x,7x,{8}6xh[16:3]/4xh[32:1],
4xh[32:1],{16}4h[32:1],6h[16:3],{8}4h[32:1],{16}4h[16:3],7,1,3,{32},4h[32:1]/5h[8:1],,,,4h[32:1],,,,4h[32:1]/5h[8:3],,,,E4,
E3,E2,E1,E8,,6,,4,,2,,8h[32:1]/6h[16:3],,,,8h[32:1],,,,8h[32:1],,6h[32:7],,8h[32:1],,,,8h[16:3],,,{16}5,
3,1,1h[32:3]/7h[16:3],,,{8}2h[32:3],{16}6h,{32}3h[32:3],A5,A6,A7,A8,A1,2x/4h[32:3],3x,5,6,7,8,{16}5h[16:3]/1-3-5-7-1[16:31],
,,,,,6h[16:3],,,,,,7h[16:3],,,,,,1h[16:1],
,,2h[16:1],,,3h[16:11],,,,,,,,,,,,,4h[16:1],
,,5h[16:1],,,{8}6h[16:1],{16},7h[16:1],{32},,,,1h[8:5]/5-3-1-7-5[8:15],
{4},,,{32}7h[32:21],{4},,,{16}5h[16:9],
,,,,,,,,,,,3h[16:1],
,,2h[16:1],,,1h[16:1],,,{8}8h[16:1],
{16},7h[4:3]/4h[16:1],,,{8}4>2<1[8:1],{16}4h,4h,,,,,8h,6h,{8}4h[8:1]/7>1>2[8:1],
{16},5h[8:1],,,6h[16:1],{32},,,,4/7h,8h,6/1h,2h,8/3h,4h,{8}5h[8:5]/2h[16:3],{16},,,8,
8,,,6,4,2,{8}8/4h[16:3],{16},8h[16:1],,,7h[16:1]/4h[16:1],,,6h[16:1]/3h[16:1],
,,{8}2h[4:3]/5h[16:1],{16},5<7>8[8:1],,,,,,,,1h,3h,5h[8:1]/2<8<7[8:1],
,,{8}4h[8:1],{16},3h[16:1],{32},,,,5/2h,1h,3/8h,7h,1/6h,5h,{16}4h[16:15]/7h[16:3],,,,,1,
1,,,3,5,7,1h[16:3],,,,,,,{8}A7/A3,
{16},A1/A5,,,5/1h[8:1],5,5,2/6h[8:1],2,2,6/2h[8:1],7,8,3/1h[8:1],4,5,
1/6h[8:1],8,7,5/7h[8:1],4,3,7/2h[8:1],1,3,2/5h[8:1],4,6,8h[4:1],{64}A7,D7,A6,D6,A5,D5,{32}A4,{64},,,,A5,
D6,D2/A6,A2/D7,D3/A7,A3/D8,D4/A8,D1/A4,{8}A1/D5,{64}A5,E5,E4,A3,E3,E2,{32}A1,{64}A5,E6,E7,A7,E8,E1,{32}A1,{64},,,,2b,3,4,5,,,,,8b,1,2,3,,,,,6b,7,8,1,,,,,4bh,3h,2h,1h,
,,,,6bh,5h,4h,3h,,,,,8bh,7h,6h,5h,,,,,{16}4/8xh[8:1],4,4,7/3h[8:1],7,7,3/6h[8:1],5,7,6/1h[8:1],8,
{32}2,,,1/4xh[8:1],,1,,1,,5/2h[8:1],,5,,5,,3/6h[8:1],,5,,7,,6/1h[8:1],,8,,2,,4h[32:3],,,,,,,{16}2h/6h,
7h/3h,8h/4h,5h/1h,,,A7/A3,,5h/6h,{8}2h/6h,{16}4h/3h,3h/7h,,4h/5h,
{8}2h/7h,{16}1h/8h,3h/6h,1h/7h,2h/6h,{8}3h[16:1]/5h[16:1],{32}8h/7h,1h/6h,2h/5h,4h[8:1]/3h,,3,,3,,4/3h[8:1],,2,,8,,3/6h[8:1],
,5,,7,,6/1h[8:1],,8,,2,,1/4h[8:1],,3,,5,,4/7h[8:1],,5,,6,,1/7h[8:1],,1,,1h[32:3],{64},,,,,,,,7b,
6,5,4,,,,,1b,8,7,6,,,,,,,,,{16}4h,{64},,,,A4,E4,E3,A2,E2,E1,{32}A8,{64}A4,E5,E6,A6,E7,E8,{32}A8,{64},3b,2,1,{32}8,{64},,,,5b,4,3,2,,,7b,6,5,4,
,,,,6bh,7h,8h,1h,,,,,,,4bh,5h,6h,7h,,2bh,3h,4h,{32}5h,,,,,{16}6/2h[8:1],6,6,2/7h[8:1],4,6,7/8h[8:1],1,
3,8/5h[8:1],1,2,5/3h[8:1],7,1,4/3h[8:1],2,8,4/8h[8:1],5,6,8/7h[8:1],2,4,
6h[8:1],,,5/7,4/8,3/1,{8}2h[32:5],{16},B3/B1,,5h/7h,{8}7h/5h,{16}3h/5h,5h/3h,
,1h/3h,{8}1h/3h,{16}1h/7h,7h/1h,2h,3h,4h,5h[8:1]/8h[8:1],{48},,,,,,4/8,3,2,1,8,7,6,5,4,7h[8:1]/3h[8:1],,,,,,,,,8/3,
1,2,3,4,5,6,7,8,1/4h[8:1],,,{16}3,5,4/7h[8:1],6,8,{32}2h,2h,2h,2h,2h,2h,{16}2h[16:3],1-5[16:7],
7,5h[8:3],,,,,,,,,,,,,{8}E3,
{16},E1,,,E7,,,E5h[16:0],,,{8}3h[8:1]/8h[8:1],{48},,,4/8,5,6,7,8,1,2,3,4,
{16}1h[8:1]/5h[8:1],{48},,,,,,5/8,7,6,5,4,3,2,1,8,4/7h[8:1],3,2,1,8,6,5,4,3,7/2h[8:1],,,{16}1,3,{32}5h,5h,5h,5h,5h,5h,{16}5h[4:1],
4-8[2:1],2,{8}8h[16:7],{16},,,,,,,,,,,B4,
,,{8}B2,{16},B8,{32},,,,B6h[16:0],,,,,,,2h[8:1]/6h[8:1],{64},,,,,,,,,,2/7,8,1,2,3,4,
5,6,7,8,1,2,{32}3h[8:1]/6h[8:1],{64},,,,,,,,,,6/2,1,8,7,6,5,4,3,2,1,8,7,6,5,4b,3,2,1,8,7,6,5,4,3,2/6,1/5,{16}4/8h[8:1],{32},,,,8h,8h,8h,8h,
8h,8h,{16}8h[16:3],1-5[16:7],3,{4}5h[16:5],{16},,,,,,,,A4,
,,A2,{48},,,,,,A8,D1,A1,D2,A2,D3,A3,D4,A4,D5/A6h[16:0],{96},,,,,,,,,,,,,,,,,,,{32}4h[8:1]/8h[8:1],{64},,,,,,,,,,4/7,6,
5,4,3,2,1,8,7,6,5,4,{32}3h[8:1]/8h[8:1],{64},,,,,,,,,,4/8,5,6,7,8,1,2,3,4,5,6,7,8,1,2b,3,4,5,6,7,8,1,2,3,4/8,5/1,{16}2/6h[8:1],{32},,,,6h,6h,
6h,6h,6h,6h,{16}6h[8:1],5-1[16:7],3,1h[8:3],,,,,,,,,,,,A8,
,,A6,{48},,,,,,A4,D5,A5,D6,A6,D7,A7,D8,A8,{8}D1/A2h[16:0],,C,
,,,,,C,,,,,,C,
E
