&title=少女さとり ~ 3rd eye
&artist=上海アリス幻樂団
&first=0.022
&des=Lonely Maistar
&lv_5=14
&inote_5=(146){1},
{16}7h[16:6]/3b,,,,,,3,5,
{8}4h[8:1],7h[8:1],3h[8:1],6h[8:1],
{8}2>5[8:1],2,8<5[8:1],8,
{8}1w5[8:1],,1,,
{8}3h[8:1],7h[8:1],2h[8:1],6h[8:1],
{16}1>1[2:1],,,3h,,,5h,,8,,,,
{16},,6,5,7,,3,4,2,,,,
{16}6h[16:4]/2b,,,,3,,5,4,
{16}7h[16:3],,,3,,,2,,
{8}6h[8:1],5h[8:1],4h[8:1],3,
{4}1-5[8:1]/8-4[8:1],1/8,
{8}3,6,(149){8}2,7,
{16}1,8,2,6,(152){16}3,5,4,6,
(150){4}1bq5[4:1],5q1[4:1],1q5[8:1]*p5[8:1],,
(148){16}1b-5[8:1]/8,8,8,,,,7,6,5-3[8:1],,6,,6,,5,,
{16}3-1[8:1]/4,4,4,,5,,6,7,8/1-4[8:1],,,,5,,,,
{16}4/5-1[8:1],4,4,,3,,2,,1-7[8:1],,,2h,,,3h,,
{16}1/7-5[8:1],1,1,,,,2,3,4,,7,6,5,,,,
{16}1bv4[8:1]/8h[8:1],,,,,,7,6,4>1[8:1],,,5h,,,6h,,
8v5[8:1]/1,,2,,3,,4,,5<8[8:1],,,,3,,,,
(149){8}4/3,1,6/5,8,
(152){16}1,2,8,7,(153){16}3,4,6,5,
(154){8}1bw5[8:1],,1,(152){8},,,8,,
(151){16}4b,5,2,6,3h[8:1],,7h[8:1],,2,3,4,,8,2,{32}8h,7h,6h,5h,
{12}3h,6h,2h,{16}6h[8:1],,3,4,2,6,5,7h[384:59],
{64},,,,,{384},,,,,{384}3h[384:29],,,,,,,,,,,,,,,,,,,,,,,,,,,,,{12}6h[12:1],
{12}2,1,8,{16}7<4[32:3],,,1h,,,{16}3,4,2,6,5,7,
{16}1b,2,3,8b,7,6,4b,5,3b,7,2h[8:1],,6h[8:1],,,,
{16}2b,3h,,4h,{32}5-8[8:1],,,5h,,,5h,,{16}2,3,4,,5,,{8}1<5[8:3],1,{4}2h,3h,{8}4h,{16}7/5h,6/4h,5/3h,,
(150){16}4h[16:4]/6h[16:4],,,,,,3h[16:4]/6h[16:4],,(149){16},,,,4,5,3,6,
(146){16}2h[16:4]/7h[16:4],,,,,,1h[16:4]/7h[16:4],,,,,,(144){16}8,7,1,7,{4}8b,(152){4},
(153){16}1b,8,1h,8,1h,7,1h,8,2h,8,1h,7,2h,8,1h,7,
1h,8,3h,8,1b,8,3h,8,1b,8,3h,8,1b,8,3h,8,
1h,7,1h,7,5h,7,5h,7,5h,3,5h,3,5h,7,5h,7,
2h,6,4h,6,2b,6,4h,6,2b,6,4h,6,2b,6,4h,6,
2b,8,2h,8,2h,4,2h,4,6h,4,6h,4,2h,4,2h,4,
3,7,2,6,1,5,8,4,7,3,8,4,1,5,2,6,
2,1,3,8,4,7,5,6,3,4,2,5,1,6,8,7,
1,5,3,7,2,6,4,8,3,7,1,5,4,8,2,6,
{16}2b,1,2,3,2,,7,8,7,6,7,,2,8,,6,
2,4,3,7,1,,7,5,6,2,8,,1,5,,4,
7,5h,7,5h,7,1h,7,1h,5,1h,5,1h,5,3h,5,3h,
6,4,8,1,5,,2,7,3,8,1,5,4,8,2,6,
3b,7,2,6,3,,8,4,5,1,8,4,5,1,8,4,
7,3,6,2,7,,1,5,3,7,2,6,4,8,1,5,
4,5,4,5,3,,7,3,6,2,7,3,6,2,5,1,5<4[2:1],,4q4[8:3],,
{4},,,
{4}2bq5[4:2],8-5[4:1],,,8b/2b,
{16},,2,8,1,1,2,8,1-5[8:1],1,2,8,
{8}1b,,,
{16}6,5,6,,{8}2,4,3,6/2,5,7/3,4,8-4[8:1]/3h[4:1],,,,
{8}2h[8:3],1,8,7,
{16}6>3[16:3],,,3h,,,2h,,
{16}1-5[8:1]/8,,,,6h[8:1],,,,2,,5,4,6,,,,
{16}6h[16:4]/2b,,,,3,,5,4,
{16}7h[16:3],,,3,,,7,,
{8}7/3,4,6/2,5,
{4}1-5[8:1]/8-4[8:1],1/8,
{8}7/8,5,1/2,4,{16}7/8,,7,8,6,1,5,2,4b-7[8:1]/3b-8[8:1],,,,4/3,,,,4/5,,,,4,5,3,6,
{16}7h[16:4]/2b-4[8:1],,,,2,,6,6,4-6[8:1],,6<4[2:1],,4,,,,6-1[8:1],,5,,,,,,1-4[8:1],,,,,,,,
{16}8<4[4:1],,4,,3,,2,,1>5[4:1],,,5h,,,6h,,7,,,,,,3,4,2,,6,5,7,,,,
{16}6h[16:4]/3b-1[8:1],,,,,,7,7,1-7[8:1],,,6h,,,5h,,7>4[8:3]/5,,5,,6,,7,,8-5[8:1],,,,,,,,
{8}5,4,5,4,5h,{16}3h,6h,2h,7,1,8,
(140){8}1h,8h,1h,(125){16}8h,,1h,(132){16}8h,1h,8h,(145){16}1/8,2/7,3/6,(153){16}4h/5h,
(153)
{8}1bqq7[8:1],2,3,4,4h[4:1],5pp7[8:1],6,5qq3[8:1],
{8}4,,8h[4:1],,1>3[8:1],,8,7,
{8}6h[4:1],,5h[8:1],7h[8:1],4h[4:1],,8h[4:1],,
{8}2>5[8:1],,8<5[8:1],{16},,3h[8:1],,,,,,
{8}7,6b>3[8:1],,7,8h[4:1],,3,2,,
{8}3<6[8:1],2,1h[8:3],,,6,2,,
{8}3h[4:1],,4h[8:1],2h[8:1],5h[8:1],1h[8:1],6h[4:1],,1,,
{8}7-4[8:1],,1-4[8:1],,,,
{16}3b,4,3,4,2,,6,5,6,5,7,,4,5,3,,
7,8,7,8,6,,2,1,2,1,3,,8,1,7,,
4,5,3,6,4,,8,1,7,2,8,,3,8,3,8,
{16}2,4,1,8,5,7,4,5,2,4,1,8,3b/7b,,,,
{16}2b-5[16:1],1,3,8,2,,7-4[16:1],8,6,1,7,,2,7,1,8,
{16}2-6[16:1],1,3,8,2,,7-3[16:1],8,6,1,7,,2,1,3,8,
{16}2,6,4,8,1,5,3,7,4,8,2,6,1,7,3,5,
{16}2/6,,3/7,,4/8,,5/1,,2h/6,3h/7,4h/8,5h/1,2,3,4,5,6/2b,,,,,,,,
{4}1>5[8:1]*<5[8:1],1q5[8:1]*p5[8:1],,,,,
(146){1}1b,E
