&title=物凄い狂っとるフランちゃんが物凄いうた
&artist=ななひら/Halozy
&first=-2.41
&des=琪露诺【^p^】蕾米莉亚
&lv_5=13
&des_5=
&inote_5=(72.5)
{1},
{16}C,,E3/A3,A4,,A6/E7,A5,,E1,,C,,E5,,,,
{16}D2,,D3,,D4,,,,D8,,D7,,D6,,,,
{16}E1,,E3/A2,B5,,A7/E7,B4,,E3,,C,,E7,,,,
{16}A6,,A5,,A4,,A3,,C,,,,,,,,
{8}5xh[4:1],,3,,8<4q8b[8:2],8,2,,
{8}2xh[4:1],,4,,3pp2^8b[8:2],3,7,,
{8}7xh[4:1],,5,,6qq3b[8:2],6,
(67.5){4}E5,
(60){4}2x-4q5-7b[16:5],
(50){4}C,
(170)
{4},,Cf/B7/B6/E7/B2/E3/B3,,
{32},,,,,,,,,,,,,,,,,,,,E3,E4,E5,E6,E7,,,,,,,,
{8}3h[4:1],,5,4,6h[4:1],,2,,
{8}8,8,4,4,6h[4:1],,2,,
{8}3,4,2,5,1h[4:1],,7,,
{8}3,3,5,5,1,1,7,,
{4}3-8[8:1],4,1-4[8:1],4,
{4}6-1[8:1],5,8-5[8:1],5,
{4}3-8[8:1]/4,34,1-4[8:1]/4,41,
{4}6-1[8:1]/5,65,8-5[8:1]/5,58,
{8}2-5[8:1],1,2,8-4[8:1],1,8,2,2,
{8}7-4[8:1],8,7,1-5[8:1],8,1,7,7,
{16}4x,5,4,5,3x,6,3,6,2x,7,2,7,1x,8,1,8,
{4}2bxpp4^1b[4:2]/7bxqq5^8b[4:2],,,,
{16}2^5[8:1],,,,8-4[8:1],,,,4,,,26,,,17,,
{16}8p4[8:1],,,,3,,,,1-5[8:1],,,8,1b,,7,,
{16}7^4[8:1],,,,1-5[8:1],,,,5,,,73,,,82,,
{16}1q5[8:1],,,,6,,,,8-4[8:1],,,1,8b,,2,,
{16}3,4,2,,2,4,3,,15,,,26,,,37,,
{16}6,5,7,,7,5,6,,8^5[8:1]/4,,,1,8b,,2,,
{16}3,4,3,4,2,5,2,5,4,7,4,7,5,6,5,6,
{16}4bx/7bx,,,2bx/6bx,,,4bx/8bx,,3bx>6b[32:5],,,,E5f,,,,
{16}5xh[8:1],,4,4,6,,37,,2-5[8:1],,1,,2,,,,
{16}46,,7,5,6x-1[8:1],,1-5[8:1],,6,,,,2,,4,,
{16}3xh[8:1],,4,4,2,,15,,7^4[8:1],8,7,8,7,,,,
{8}1-5[8:1],2,3,4-8[8:1],3,2,1b,,
{16}4xh[8:1],,5,5,3,,62,,7-4[8:1],,8,8,7,,,,
{16}3,4,2,5,3xv8[8:1],,8q4[8:1],,3,,,,7,,5,,
{16}6xh[8:1],,5,5,7,,84,,2^5[8:1],1,2,1,2,,,,
{8}8-4[8:1],7,6,5-1[8:1],6,7,8b,,
{16}25,,3,4,3,,25,,4,3,4,,{32}2h[8:1]/Ch[8:1],,,,,,,,
{16}74,,6,5,6,,74,,5,6,5,,{32}7h[8:1]/Ch[8:1],,,,,,,,
{32}4x,,,,E1,B1,B2,,3x,,,,B8,C,B4,,2x,,,,E7,E6,E5,,{16}1xq7<2[8:6],,,,
{8}7,8,8,1,1,,,,
(147)
{1}C,
(128)
{16}7x,,,,7x,,,,3xh[16:3],,,5h[16:3],,,1,,
{16}34,3,,45,5,,1,8,2,,56,6,,45,4,,
{16}2x,,,,2x,,,,6xh[16:3],,,4h[16:3],,,8,,
{16}3,4,3,4,3,4,2,,6h[16:3],,,4h[16:3],,5,5,,
{16}4x/6,,,,4x/6,,,,5x/3h[16:3],,,7h[16:3],,,5,,
{16}34,2,,45,6,,1,7,3,,56,7,,45,3,,
{16}5x/3,,,,5x/3,,,,4x/6h[16:3],,,2h[16:3],,,4,,
{16}6,5,6,5,6,5,7,,2,4,3,5,4,,{24}E8,E7,E6,
(130){8}4xh[4:1],,5h[8:1],3h[8:1],4h[8:1],2h[8:1],Ch[8:1],,
(138){8}3xh[4:1],,5h[8:1],3h[8:1],4h[8:1],2h[8:1],Ch[8:1],,
(142){8}2xh[4:1],,5h[8:1],3h[8:1],4h[8:1],2h[8:1],Ch[8:1],,
(148){8}1xh[4:1],,5h[8:1],3h[8:1],4h[8:1],2h[8:1],Ch[8:1],,
(152){4}2-4[8:1]/1-5[8:1],,7-5[8:1]/8-4[8:1],,
(156){4}2-4[8:1]/1-5[8:1],A1/A2/D2,7-5[8:1]/8-4[8:1],A8/A7/D8,
(162){8}2-4[8:1],2,1-5[8:1],1,8-4[8:1],8,7-5[8:1],7,
(168){8}2-4[8:1],2,1-5[8:1],1,8-4[8:1],8,7-5[8:1],7b,
{8}4x,4,6x,6,2x,2,8x,8,
{16}3x,4,2,,6x,5,7,,2x,4,3,,7x,5,6,,
{24}3x,4,3,4,,,6x,5,6,5,,,2x,4,2,4,,,7x,5,7,5,,,
{32}1x,2,3,4,5,6,7,8,1x,2,3,4,5,6,7,8,1x,2,3,4,5,6,7,8,1x,2,3,4,5,6,7,8,
(170){1}1bxqq4b[4:5]/6bxpp4b[4:5],
{4},,,Cf,
{16}2/5,,3,,4/7,,{16}6,5,{8}6,2/5,{16}3,4,{8}3,
5<8[8:1],5,1p5[8:1],2,3,4q8[8:1],3,4/2,
{4}1-4[8:1]*>4[8:1],1-6[8:1]*<6[8:1],1,{8}3/5,4/6,
{4}5/7p3b[8:1],{8}78,1-4[8:1],5,1b-6[8:1],5,1b,
{4}5h[4:1],{8}4<7[8:1],3,2,{16}1>4[8:1],8,{8}2,7,
{8}6-2[8:1],5,6pp5[8:3]/4,,{8}8-4[8:1],{16},,{8},,
2-6[8:1],1-5[8:1],2,1,{16}3,4,{8}3,{16}6,5,{8}6,
{16}35,,6bx/8bx,,24,,1bx/7bx,,3,6,3bx,6,4,5,4bx,5,
{1}Ch[4:3],
{8}4>1[8:1],4,8q4[8:1],7,6,5p1[8:1],6,5/7,
{4}8p4[8:1]*<5[8:1],8q4[8:1]*>3[8:1],8,{8}7/5,4/6,
{4}5/3-5b[8:1],{8}31,8<5[8:1],4,8b>3[8:1],4,8b,
{4}4h[4:1],{8}5>2[8:1],6,7,{16}8<5[8:1],1,{8}7,2,
{8}3-7[8:1],4,3qq5[8:3]/5,,{8}1-6[8:1],{16},,{8},,
{16}3x,4,2,5,1,8,2,7,5,6,4,7,2,1,3,8,
{32}4x,,,,D7,D6,D5,,3x,,,,E7,E6,E5,,2xh[4:1],,,,,,,,{16}Cf,,,,
{16}2^5b[8:1],,,,8-4b[8:1],,,,4,,,35,,,26,,
{16}7v4b[8:1],8,,8,7,,,,2-6b[8:1],,,8,2b,,7,,
{16}7^4b[8:1],,,,1-5b[8:1],,,,5,,,46,,,37,,
{16}2h[16:3],,,4h[16:3],,,3,,7-3b[8:1],,,1,7b,,2,,
{16}1,5,1,5,2,6,2,6,3bx,,,5b/7b,,,2b/8b,,
{16}7,3,7,3,6,2,6,2,5bx-1b[8:1],,,6,5b,,7b,,
{16}2,8,1,7,2,4,3,5,4,6,5,7,1,8,2,7,
{16}1bx/6bx,,,4bx/8bx,,,2bx/5bx,,8bxv3b[8:1]*v5b[8:1],,,,8bx,,,,
{1}Cf/B5/B6/E6/B2/E2/B1,
