&title=圆形监狱
&artist=r-906
&first=0.03
&des=Moufute
&lv_5=14
&des_5=Moufute
&inote_5=
(174){4},,,,1/5h[4:3],
1,{2}1h[4:1],
{8}2/6h[4:3],2,{4}2,{2}2h[4:1],
{8}3/7h[8:5],3,{4}3,3,{8}3,8h[4:3]/4h[4:3],
,,,,,,,5/1h[4:3],
5,5,,5h[4:1],,,,2h[8:7]/6h[8:7],
,,,,,,,,5/1h[4:7],
5,{4}5,5h[8:1],{8}5,5h[8:7],
,,,,,,,,5/3,
7,2,5/3,4,4h[8:1],{16},,5,6,
7,8h[16:3],,,,,2,1,2,1,{8}3h[8:1],,,4/6,
2,7,4/6,5,5h[8:1],{16},,2,4,
{8}3,{16}5,4,6,5h[16:7],{8}8h[4:1],,,,,4/6,
2,7,4/6,5,5h[8:1],{16},,4,3,
2,1,,,7,8,7,2,1,2,4,3,{4}4,
{8}5/3,6,1,5/3,4,4h[8:1],{16},,7,5,
{8}6,{16}4,5,3,2/4h[16:3],1,8,7,6,5,8xh[16:9]/4xw8[0.9483##0.3448],{1},{4},7h[8:1],
{16}5,6,4,5,3,4,{8}1-4[0.3448##0.1724],,4-1[0.3448##0.1724],
,1-5[0.3448##0.1724],5h[#0.1724148],,{16},,,,4,6,3,7,
2,8,{8}1-4[8:1],,7h[8:1]/1-6[8:1],,1-5[8:1],,5-8[8:1],
,8-4[8:1],{4}4h[8:1],{16},,,,3/5,2/6,{8}1/7,
{16}2,4,3,5,4,6,5,6,7,6,8-4[0.3448##0.1724],6,1,6,{8}2-4-6[0.3448##0.2874],
,,{16},,7,8,1,2/6h[16:3],,,,,,,3,
4,3,4,{4}2/5,{16}5,6,5,6,{8}3/7,8h[8:1],
,2h[8:1],,4h[8:1],{16},1,2,3,4-8[8:1],5,6,7,
,,,,,,2,1,2,1,{8}3/8,{4}3/8-4[0.3448##0.1724],
{8}6,{16},,,,7,8,7,8,{8}1/5,{4}5/1-5[0.3448##0.1724],
{8}3,{16},,,,2,1,2,1,{8}8/4,{4}4/8-4[8:1],
{8}6,{16},,,,7,8,7,8,{8}1/4,{4}4/1-5[8:1],
{8}3,{16},,,,2,1,2,1,{8}8/5,{4}5/8<4[32:5],
{8}6,{16},,,,7,8,7,8,{8}1/4,{4}4/1>5[32:5],
{8}3,{16},,,,2,1,2,1,{8}8/4,{16}4/8<8[16:7],3x,2x,1x,
8x/6h[2:1],,,,,,,,,7,6,5,4,3,{8}2h[8:1],
{2}6b,{4}E8,B8,
,B2,B3,B4/E5,
{16}D7,A6,D6,A5,,,D4,A3,D3,A2,,,A1,D1,A8,D8,
,,,,,,,,,,,,,,,,7,
6,{8}5xh[8:23],,E2/B1/B2,,,,,,,{4}B8,
E7,B5/E6,
{16}D3,A3,D4,A4,,,D6,A6,D7,A7,,,D1,A1,D2,A2,
,,,,,,,,,,,,,,,,3,
2,{8}1h[8:23],,,{2}A6/B6/E6,
{4},B1,E3,B4/E4/B3,
{16}D7,A6,D6,A5,,,D4,A3,D3,A2,,,D1,A8,D8,A7,
,,D6,A5,D5/E5,A4,D4,A3,D3/E3,A2,D2,A1,{4}D1/E1,
{1}C,
{16},,,,,,,,,,,,,,,,4,
5,4,5,3,6,4,5,4,5,2,7,4,5,4,5,
3,6,2,7,1,8,{24}1b-5[6.3793##0.1724],{48}2x,8h[16:17],{24}3x,{2}4xh[1:1],
{8},,,,,,,4xh[8:1]/3xh[8:1],
,2xh[4:1]/3xh[4:1],,,3/4,3/4,{4}4/3,
{8}3/2,4xh[4:1]/3xh[4:1],,,,2/3,{4}3/2,
{2}4xh[4:1]/3xh[4:1],{16}3,4,3,4,3,4,3,4,
{4}1b,{8}6/8,8/6,{4}3/1-5[8:1],1b/7,
3/1-5[8:1]*-5[8:1],1b/7,3/1-5b[8:1],1b/7,
{8}8/6,8/6,2h[2:1],4,6,8,{16},,2,4,
3,5,4,6,5h[4:1],7-3[8:1],,,,,{8}1b,{4}1b,
{16}4x,5x,6,7,8/1,2,3,4,5/6,7,8,1,2/3,4,5,6,
{8}B5/B4/E5/7b>6[4:5],,,,,4,4,4h[8:3],
{16},,,,,,,,,,,,2,1,2,1,
{4}3/8,{16}8,7,8,7,{2}5h[4:1]/1h[4:1],
{4}1b,{8}6/8,8/6,{4}3/1-5[8:1],6/1b,
3/1-5[8:1]*-5[8:1],7/1b,3/1-5b[8:1],8/1b,
{8}7/6,7/6,,4/8,5h[4:1]/1h[4:1],{16},,,,4,8,
3,7,2,6,1,5,{8}8-4b[8:1],{4}4-8[8:1],{24}E7,E6,{48},,,,,,,,{16}1,
2,3,4,5,6,7,8,1/7,6,5,4,3,2,1,8,
7/3,4,5,6,7<5[8:1],8,1,2,{2}3>1[8:1],
{16}4h,8h,4h,8h,4h,8h,,,{4}3/1-5[8:1],1b/7,
3/1-5[8:1]*-5[8:1],1b/6,3/1-5b[8:1],1b/5,
{8}4/8,2/6,,3/4,{4}5/2h[8:1],{16}7,5,6,4,
5,3,4h[16:3],2-6[8:1]*-6[8:1],,,,,,,{8}1b,{4}1b,
{8},7/5,{4}7/5,{8}4/2,4/2,{16}8,7,1,6,
2,5,3,4,2,1,3,8,4,7,5x,{48}6<6[16:11],7,,{24}8,1x,2x,3x,{12}4h[6:5],
{4},,,{16},,{8}7h[8:1],
5h[8:1],6h[8:1],4h[8:1],1<5[8:1]*>5[8:1],,1h,,,{4}8/6,
4/1-5[8:1],1b/6,3/1-5[8:1]*-5[8:1],
1b/7,2/1-5b[8:1],8/1b,1x,
{8}3/5,4/6,{4}5/7,{16}2,1,2,1,{8}2,3/8h[8:1],
{16},7,5,6,4,5,3,4,{8}2h[4:1],8b,{4}8b,
{16}5,6,5,6,{4}4/7h[8:1],{16}3,4,3,4,{8}6/2<5[4:1],2/6h[8:1],
{16},,,,,6x,4x,6,3,5x,2x,4,1,3x,8,2h[16:9],
{1}7b>8>1>2>3<4<5<6<7[2:3],
{8},,,,,E2,{4}B2/B1/E2,
{8}6xh[16:1],4h[16:1],{4}5h[8:1],{8}6/1,3/8,{16},,2,4,
3,5,4,6,5,7,{8}1,1,2h[16:1]/8h[16:1],7h[16:1]/3h[16:1],4h[16:1]/6h[16:1],
{4}5b,{8}7h[4:1],5,3,1h[4:1],7,5,
3,{16}2,1,3,8,4,7,5,6,{24}8x,1,2,3,4,5,2bx/6,,,{4}2xh[8:1],
{8}5h[8:1],7,2/4h[8:1],2,{16},,2,4,
3,5,4,6,5,7x<3[16:3]*>3[16:3],6bx,8bx,,,,,,,,,3bx,
4,2,5,1bx,6,8bx,7,8x,7,8bx,6,8,5,8bx,4,
8,3,7bx,3,6x,3,8bx,3,,,{8}7b>3>7b[16:69]`3b<7<3[16:69],{4}7xh[8:1]/3xh[8:1],
,,,,,,,,,,,
||这是一个标记~
,
E
