&title=ミカヅキ
&artist=さユり
&first=0.04
&des_5=Aa1
&lv_5=13
&des=Aa1
&clock_count=4
&inote_5=(126)
{8},,,,,,,,E4,E5,E6,,E4,E5,E6,,3x<1[2:1],,E3h[2:1],
{8},,,,,E6,E5,E4,,E6,E5,E4,,6x>8b[2:1],,E7h[2:1],
{8},,,,,B3,E5,B6,,B3,E5,B6,,4>6[2:1],,E5hf[2:1]/D5hf[2:1],,,,,,
{8}1h[2:1],,,,2h[2:1],,,,3<8p4[2:1],,,,B3,,,,
{8}4h[8:1]/E6,,4h[8:1],,5h[8:1]/B3,,5h[8:1],,
{8}3-1-4[4:1],,7,,5-8[8:1],,3,,
{8}1h[8:1]/B7,,2h[8:1],,7h[8:1]/B4,,6h[8:1],,3-6-4[4:1],,8,,7-2[8:1],,1,,
{8}3h[8:1]/B5,,1h[8:1]/4,,5h[8:1]/B2,,7h[8:1]/4,,6/3h[4:1],,
{8}7-5-1[4:1],,1-3[12:1],,,,4/5h[4:1],,3-7-5[4:1],,5-8[8:1]*-1[8:1],,,,
{8}2/7,2/7,1h/6h,2h/5h,3x-8[8:1]/7x-4[8:1],,,,
{8}2/6,7/3,8/2h[4:1],1-3[8:1],4x-8[8:1],1,4x,2h[16:5],
{16}8x,,,5,2^4[8:1],,4^1b[8:1],,8^5b[8:1],,,,D1h[1:0]/E1f,,,,
{8}7/4,3,2/5,6,1/7h[8:1],3,2h[8:1]/8,6,1^4[8:1]/7,,1p5[8:1]/3,,1b/7,,8x/2x,,6h[4:1],5,5-8[8:1],,1xb-4[8:1]/5,,7/1,,6h[4:1],5,5^8[8:1],,1xb^4[8:1]/5,,1/6,,
{8}4h[4:1],8,8h[4:1],5,5h[4:1],7,7h[4:1],,
{16}5b,6,5,6,4xb,6,5,6,3xb-8[8:1]/7x,,,,E8f,,,,
{8}1/6,7/2,4/6h[4:1],5-8[8:1],1x-4[8:1],5,1x,7h[16:5],
{16}2x,,,4,7^5[8:1],,5^8b[8:1],,1^4b[8:1],,,,D1f/E1h[1:0],,,,
{16}2^4[8:1]/5,,,4,2,,1x,,7^5[8:1]/4,,,5,7,,8x,,7/3h[8:1],,,6x,4x/5x,,1,,
{16}6h[8:1]/2,,,3x,4x/5x,,2,,1/7-5[8:1],,,4,4,,2h[8:1],,7-4[8:1],,,3,3,,1h[8:1],,
{8}7x-3[8:1],,3x-8[8:1],,2,,3x/5x,,5h[4:1],3,4h[4:1],6,5h[4:1],3,2h[4:1],,
{16}4b,3,4,3,5xb,3,4,3,
{32}6xb,5x,4x,3x,2x,1x,8x,7x,6x,5x,4x,3x,2x,1x,8x,7x,6bx/4>7[4:1],,,,,,,,B6/E6f/B5,,,,,,,,4x>6b[16:4],,,,,,,,B1/E2f/B2,,,,,,,,
{8}4x>5[16:4],,B7/E7f/B6,,3x,,1/7,,
{32}3/5<2[4:1],,,,,,,,B3/E4f/B4,,,,,,,,5x<3b[16:4],,,,,,,,B7/E7f/B6,,,,,,,,
{8}5x<4[2:1],,E5hf[2:1],,,,,,
{8}2/7,3x,{16}6,4,5,,{8}1/6x,3x,4h[8:1]/5h[16:1],,7/2,8,1s5[4:1],2h[16:6],,,,,
{16}3b/5b,,,1b/7b,,,2xhb[4:1]/3xbh[4:1],,,,,,1h[8:1],,4h[8:1],,8h[8:1],,5h[8:1],,7s3[2:1],,6xh[16:10],,,,,,,,,,,,,,,,,,,,,,,,,,,,,,,,,,,,,,,,,,
{8}E4h[4:7],,,,E5h[4:3],,,,E6h[2:1],,,,,,,,
{8}E2,,,,E1,,,,E8,,,,E7,,,,E6/E4h[4:1],,,,E3/E7h[4:1],,,,E2h[4:3],,E1h[4:2],,E8h[4:1],,,,
{8}3-5[8:1],,E6,,7^5[8:1],,E1,,2-4[8:1],,E8,,5^7[8:1],,E1,,
{8}3h[4:1]/4,,E5,E6,7h[4:1]/5,,E5,E4,
{8}2h[4:1]/4,,E5,E6,7h[4:1]/5,,E5,E4,
{8}1/2,1/2,E3h[8:1],,3/4,3/4,E5h[8:1],,
{8}5/6,5/6,E7h[8:1],,8-4[8:1],,6,,
{8}6h[4:1]/4-2[8:1],,,,3h[4:1]/5-7[8:1],,,,
{8}7xh[2:1]/6x>1q5[1:1],,,,,,,,,,,,
{8}1`8,,4`5,,
{16}2,5,3,7,4h[8:1],,,,5xb^8[8:1]/6xb,,4x^1[8:1]/3x,,5,,4-8^5b[4:1],,8x^3[8:1],,,,,,,,
{8}7h[4:1]/3,{16},1,1-5[8:1],,7-3b[8:1],,
{8}1^4[8:1],7,1,5xb,
{8}7/4,3,2/5,6,1/7h[8:1],3,2h[8:1]/8,6,1^4[8:1]/7-3[8:1],,7^4[8:1]/1-5[8:1],,1b/7b,,6/2,,7h[4:1]/4,5,6-3[8:1],,2xb-5[8:1]/6,,2/8,,7h[4:1]/4,5,6^3[8:1],,2b^7[8:1]/6,,2/5,,
{8}6h[4:1]/2,3,4h[4:1],5,6h[4:1],2,1h[4:1],,
{16}5xb,8,7,8,6xb,1,8,1,2x/7xb-5[8:1],,,,B2f,,,,
{16}4xb^1[8:1]/3xb,,8x^5[8:1]/7x,,4,,8-4^1b[4:1],,4x^7[8:1],,,,,,,,
{8}2h[4:1]/6,{16},8,8-4[8:1],,1h[16:2],,
{8}8^5[8:1],{16},2,8,,1xh[32:3],,
{32}6xb/2xb,3x/7x,4x/8x,,,,3/7,,,,,1h[32:4]/5h[32:4],,,,,
{32}6x/2x,3x/7x,4x/8x,,,,3/7,,,,,5,,,,,
{16}2/5h[8:1],,,3x,5x/4x,,8,,
{16}3h[8:1]/7,,,6x,5x/4x,,7,,8/2-4[8:1],,,5,2-8[8:1],,7h[8:1],,2-5[8:1],,,6,2,,8h[8:1],,
{8}3>6[4:1],,6<3b[4:1],,5,,7b,,
{8}1/2,1/2,3/8,3/8,4/5,4/5,6/7,1/8,2-5[8:1]/3-8[8:1],,2-7-2[32:7]/3-6-3[32:7],,,,A2/D3f/A3,,
{8}3-1[8:1]/7-5[8:1],1/5,,,3-8[8:1]/7-4[8:1],5/1,,,
{16}1b,4,2,5,3,4,2,5,
{32}1b,2,3,4,5,6,7,8,1,2,3,4,5,6,7,8,1xb/Cf,
{32},E
