&title=チェリーポップ
&artist=DECO*27
&first=0.314
&des_5=Amtlich
&lv_5=12+
&des_6=Zamykal
&lv_6=13+
&des=
&inote_5=(192)
{4}E6,B5,B4,E4,
{8}2-4[8:1],,2,,6,5,6,5,
{8}7-5[8:1],,7,,3,4,3,4,
{8}2-6[8:1],,2,,7,7,5,5,
{8}8,1,8,1,7,2,7,2,
{8}6-8[8:1],,6,,4,5,4,5,
{8}3-1[8:1],,3,,5,4,5,4,
{8}6-1[8:1],,6,,3,3,4,4,
{8}2,4,3,5,4,5,6,7,
{4}8-4[4:1],,3,4/5-1-3[8:3]*-1-7[8:3],
{8},,,,,6,5,6,
{8}4-2[8:1]/7-5[8:1],,,,1s5[8:5],,6,6,
{8},,,,,7,8,1,
{4}2,3/4,2/6,2pp4b[8:3]/6pp8b[8:3],
{8},,,,,3,3,,
{8}2-4[8:1]/6-4[8:1],,,,3/7-5[8:1],,2,2h[4:1],
{8},E1/A1/D2/A2/E3/B3f/A4,,,,5bx,4bx,5bx,
{8}6<8[8:1],,5,5,3>1[8:1],,4,,
{8}6<8[8:1],,5,5,3>1[8:1],4,3,,
{8}7,7,4,4,5,5,2,2,
{8}8-6[8:1],8,1-5[8:1],1,8-4[8:1],8,3,,
{8}2xh[8:3],,1,1,,8,1,7h[8:3],
{8},8,8,,5,6,4,5,
{8}3,3,1,1,8,8,6,6,
{8}2-4[8:1],2,7-5[8:1],7,1-5[8:1],1,8,,
{8}7h[4:1],,6h[4:1],,5h[4:1],,2,2h[4:1],
{8},3,3h[4:1],,4h[4:1],,8,,
{8}1/2,,1/2,,3/4,,5/6,5qq2[8:7]/6h[8:3],
{8},,,7,7,8,8,7,
{4}7h[8:1],7h[8:1],5h[8:1]/6h[8:1],5h[8:1]/6h[8:1],
{16}3/4,,2,1,2,,8,,3,,4,,3,,7,,
{8}7x-5[8:1]/8x-4[8:1],,7/8,,3,4,3,4,
{8}1x-5[8:1]/2x-4[8:1],,1/2,,6,5,6,5,
{8}7/8,6,4/5,3,1/2,8,1/7,6,
{8}2-4[8:1]/5,2,1-5[8:1],1,8x-4b[8:1],8x,7x-5b[8:1],7x,
{8}1x-3[8:1]*-4[8:1],,1,,6,5,7,8,
{8}7x-5[8:1]/8x-5[8:1],,7/8,,3,4,2,1,
{8}3/8,3/8,5/4,6,8/7,1,8/2,3,
{8}7-5[8:1]/4,7,8-4[8:1],8,1x-5b[8:1],1x,2x-4b[8:1],2x,
{16}7b,,6,5,6,,5,,7,,8,,7,,8,,
{16}5x,,3,4,3,,4,,2,,1,,2,,1,,
{8}3/8,7,5/6,4,3/5,2,1/8,7,
{8}2-4[8:1]/6,2,1-5[8:1],1,8x-4b[8:1],8x,7x-5b[8:1],7x,
{16}2x,,3,4,3,,2,,6,,5,,7,,8,,
{16}7x,,6,5,6,,7,,3,,4,,2,,1,,
{8}2/8,3,4/5,6,1/7,6,4/5,3,
{8}7-5[8:1]/2,7,8-4[8:1],8,1x-5b[8:1],1x,2x-4b[8:1],2x,
{4}E6,E5,E4,Cf/B2/B7,
{8}8-6[8:1],,5,,3,4,3,4,
{8}1-3[8:1],,4,,6,5,6,5,
{8}8<5[8:1],,4,,3,4,2,3,
{8}1,1,2/8,2/8,3/7,3/7,4/6,4/6,
{8}5-7[8:1],,3/5,,2,1,3,4,
{8}2-4[8:1],,2/8,,6,5,7,8,
{8}6-1[8:1],,5/6,,3,3,4,4,
{8}3/5,3/5,2/6,2/6,1/7,1/7,2/8,2/8,
{4}1-5[4:1]/3h[4:1],,3,3/4-8-6[8:3]*-8-2[8:3],
{8},,,,,3,4,3,
{8}5/2>4[8:1],,,5<7[8:1],,,1,1s5[2:1],
{8},6,,6,,7,8,1,
{8}2-4[8:1],,2/5-7[8:1],,1/5,1pp1[2:1]*qq1[2:1],,,
{8},,,,,6,5,7,
{8}7h[4:1],,,3h[4:1]/4h[4:1],,,1,1x,
{8},2x-6b[8:1]/8x-4b[8:1],,2x/8x,,7,5,3,
{8}1x>4[8:1],,5,6,7<5[8:1],,4,3>1[8:1],
{8},8,8-4[8:1],,1/8,,2,2,
{8}4,3,4,3,6,5,7,7,
{8}1-5[8:1],1,8-4[8:1],8,2-4[8:1],2,7,,
{8}6xh[4:1],5,5,3h[4:1],4,4,2/5,2/5-7[8:1],
{8},8,8>4[4:1],,7,,8,8,
{8}7,5,6,2,4,3,8,1,
{8}8-4[8:1],8,2-4[8:1],2,7-5[8:1],7,1,,
{8}2bh[4:1],,3h[4:1],,4h[4:1],,7,7h[4:1],
{8},6,6h[4:1],,5h[4:1],,1,,
{8}2bh[4:1],,3h[4:1],,4,4,5,5h[4:1],
{8},1,8,1,2/7,,3/6,3/6,
{2}3bxh[4:1]/6bxh[4:1],4h[4:1]/5h[4:1],
{2}5bxh[4:1]/6bxh[4:1],6h[4:1]/7h[4:1],
{2}7bxh[4:1]/8bxh[4:1],1bxh[4:1]/2bxh[4:1],
{4}3x/4x,1x/2x,7x/8x,5x/6x,
{8}4/5,4/5,3/6,3/6,2/7,2/7,1/8,1/8,
{8}2/4,3,5/7,6,4/5,,B2/B7/Chf[8:9],,
{1},
{16},,2,1,2,,3,,6,,5,,7,,8,,
{8}1x-3[8:1]/8x-4[8:1],,1/8,,7/8,6,1/2,3,
{8}8x-6[8:1]/1x-5[8:1],,8/1,,1/2,3,7/8,6,
{8}4/5,3,2/8,7,1/6,2,3/4,5,
{8}1-5[8:1]/6,1,8-4[8:1],8,2x-6b[8:1],2x,7x-3b[8:1],7x,
{8}1x-4[8:1]*-6[8:1],,1,,5/7,8,2/4,1,
{8}8x-3[8:1]*-5[8:1],,8,,2/4,1,5/7,8,
{8}1/2,3,4/8,7,1/6,2,3/5,6,
{8}1/7-3[8:1],7,2-6[8:1],2,8x-4b[8:1],8x,1x-5b[8:1],1x,
{16}6b,,7,8,7,,6,,3/4,,2,,5/6,,7,,
{16}1x/8x,,2,1,2,,3,,5/6,,8,,3/4,,1,,
{8}8/7,6,5/1,2,8/3,7,6/4,3,
{8}2-4[8:1],2,1-5[8:1],1,8b-4b[8:1],8,7b-5b[8:1],7,
{16}2x,,3,4,3,,4/5,,5/6,,7,,3/4,,2,,
{16}1/8,,6,5,6,,7,,3/4,,1,,5/6,,8,,
{8}1/7,6,4/5,3,2/8,7,5/6,4,
{8}3/7-5[8:1],7,8-4[8:1],8,1b-5b[8:1],1,2b-4b[8:1],2,
{4}E8,B8,B1,E2,
{8}8-4[8:1],,3/8,,2,1,3/8,7,
{8}1-5[8:1],,6/1,,7,8,6/1,2,
{8}8-4[8:1],,3/8,,2,1,3/8,7,
{8}7/8,6,1/2,3,5/6,7,3/4,2,
{8}1-5[8:1]/8,,6/1,,7,8,6/1,2,
{8}8-4[8:1],,3/8,,2,1,3/8,7,
{8}1-5[8:1],,6/1,,7,8,6/1,2,
{8}3/4,1,5/6,8,1/2,4,7/8,5,
{4}E4,B4,B5,E6,
{4}C/B2/B7,
E
&inote_6=(192)
{4}E6,E4,E7,A2/B2/E2,
{8}8-4[8:1],,3h[4:1],,5-7[8:1],5,2-4[8:1],2,
{8}8-4[8:1],,3/8,,2-4[8:1],2,5-7[8:1],5,
{8}1-5[8:1],,1/8,,7,6,2,3,
{8}E6,E4,E8,E2,B7/E7,B3/E3,B5/E5,1,
{8}1-5[8:1],,6h[4:1],,4-2[8:1],4,7-5[8:1],7,
{8}1-5[8:1],,6/1,,7-5[8:1],7,4-2[8:1],4,
{8}8-4[8:1],,8/1,,2,3,7,6,
{8}B1/E2,B5/E6,B3/E4,B7/E8,1x,2/8,3/7,4/6,
{8}4/6V47[8:3],,3h[4:1],,,,2,1,3,
{8}5,4,6h[4:1],,5>3[8:1],5,7,
{8}7-5[8:1],,2,2,4,3,5,4/6,
{8},3/5,,1s5[8:3]/7,,6,6-8[8:1],,
{8}6,,B3/E3/E4,,B6/E6/E7,,1,1,
{8}7,5,6,4/5,,3,4,3,
{8}2/5-7[8:1],,1-5[8:1],1,8-3[8:1],8,4,4<3b[2:1],
{8},B6/B5/E6f,,,,5b,6b,7b,
{8}8-4[8:1],4,8,3-1[8:1],,5,6,6-8[8:1],
{8},2,2-5[8:1],,1/2,,6,7,
{8}8-2[8:1],8,4-2[8:1],4,7-5[8:1],7,1,1-3[8:1],
{8}4x,1-5[8:1],6x,1>4[8:1],7x,1,5xpp6[4:1],,
{8}5b,4qq3[4:1],4,5,,5,6,7-3[8:1],
{8},4/7,4-2[8:1],,4-8[8:1],6,4,5,
{8}1,1,2/8,2/8,1/7,2/6,3/5,4/6,
{4}4x/6x<1[8:1],5x/6x>3[8:1],6x-2[8:1]/7x,5x/6x,
{8}4,,4,,3h[8:3]/5,,4,4,
{8},4/5,4/5,,5h[4:1]/6h[4:1],,,,
{8}4>1[4:1]/7,,1<6[4:1],,6>3[4:1],,1,1h[2:1],
{8},,,2,1/2,3/8,5/6,4/7,
{4}3xh[8:1]/8xh[8:1],3h[8:1]/8h[8:1],2h[8:1]/7h[8:1],2h[8:1]/7h[8:1],
{16}1/6,,7,8,7,,1/6,,4/5,,3,,2/8,,7,,
{16}2b/6b,,3,4,3,,2,,8-6[8:1],,1-5[8:1],,8,,1,,
{16}7,,6,5,6,,4,,3-1[8:1],,4-8[8:1],,3,,4,,
{8}2,2h[8:1],3h[8:1],4h[8:1],7h[8:1],6h[8:1],5h[8:1],1,
{8}2-4[8:1],7-5[8:1],2,7,1bpp3b[8:1],8bqq6b[8:1],1b,8b,
{16}2x,,3,4,3,,4/5,,7-3[8:1],,8-4[8:1],,7,,8,,
{16}7,,6,5,6,,4/5,,3-7[8:1],,4-8[8:1],,3,,4,,
{8}1,1h[8:1],2h[8:1],3h[8:1],5h[8:1],6h[8:1],7h[8:1],2,
{8}8-4[8:1],1-5[8:1],8,1,7bqq6b[16:3],2bpp3b[16:3],7b,2b,
{16}8x,,6,5,7,,4/8,,1-5[8:1],,3-8[8:1],,1,,3,,
{16}6,,3,4,2,,1/8,,7-4[8:1],,5-1[8:1],,7,,5,,
{8}8,8h[8:1],7h[8:1],6h[8:1],4h[8:1],3h[8:1],2h[8:1],8,
{8}7-4[8:1],3-8[8:1],7,3,5bpp7b[8:1],1bpp3b[8:1],5b,1b,
{16}6x,,7,8,7-5[8:1],,8-4[8:1],,7-3[8:1],,8-2[8:1],,7,,8,,
{16}5,,3,4,2-6[8:1],,1-7[8:1],,2-4[8:1],,1-5[8:1],,2,,1,,
{8}2,2h[8:1],1h[8:1],8h[8:1],6h[8:1],5h[8:1],4h[8:1],2,
{8}1-3[8:1],8-6[8:1],1-5b[8:1],8-4b[8:1],1b>4b[8:1],8b<5b[8:1],1b,8b,
{4}E4,E5,E6,2b/7b,
{4}1-5[8:1],6,4h[8:1]/6h[8:1],4h[8:1]/6h[8:1],
{4}7-5[8:1],4qq4[4:1],4pp4[4:1]/8h[8:1],8h[8:1],
{4}8-4[8:1],3,3h[8:1]/5h[8:1],3h[8:1]/5h[8:1],
{8}2h[8:1]/4,4,1h[8:1]/3,3,2/8h[8:1],2,1/7h[8:1],1,
{4}6/8-4[8:1],6,3h[8:1]/7h[8:1],3h[8:1]/7h[8:1],
{4}2-4[8:1]/5-7[8:1],2/5pp5[4:1],1h[8:1]/5qq5[4:1],1h[8:1],
{4}1-5[8:1],6,6h[8:1]/4h[8:1],6h[8:1]/4h[8:1],
{16}5/7,,5/7,,6/8,,6/8,,1,7,1,7,2,8,2,8,
{8}3,,2-8[8:1]/4h[4:1],,,,5,4,
{8}6,5,7-1[8:1],7,5,,3,4,
{8}2-4[8:1],,1,8,7-5[8:1],7,4,B3/E3/E4,
{8},B6/E6/E7,,B1/B8/C,,4,5,3,
{8}3-1[8:1],,4,,5,4,6,6-8[8:1],
{8},5,4,3h[4:1],,4,4,2,
{8}1h[8:1]/8h[8:1],,1/8,,7,5,6,B4/B5/E5,
{8},4/B7/E7/E8,,5/B2/E2/E3,,8,8-4b[8:1]*z4b[8:1],1,
{8},,1b/7b,6,5<8[8:1],,1/5,2-6[8:1],
{8},1/2,8-4-6[16:3],,8,3,3,3,
{8}7-3[8:1],2-8[8:1],7,2,4-8[8:1],1-3[8:1],4,1,
{8}7x-5[8:1],4,7x-3[8:1],2,7x-4[8:1]*-5[8:1],1,7x,,
{8}3b/8b,2,1,1/6,7,8,2/7,2-4[8:1]/7,
{8},5,6V47[4:1],,4,,3,3,
{8}2-8[8:1],7-3[8:1],2,7,1-5[8:1],6-8[8:1],1,6,
{8}4x-2[8:1],5,4x-8[8:1]/5x-7[8:1],,4x/5x-1[8:1],,2x/5x,,
{8}3bxh[2:1]/8bx,,8,,4,,2/5,2/5h[8:3],
{8},4,4,,5h[4:1]/6h[4:1],,,,
{8}4bx/7bxh[4:1],,4,4,5,3,4,2<6[8:3],
{8},6,6<2[8:3],5,5,,4,4bx,
{8}3bxh[4:1]/5bxh[4:1],,,,4/6,,5/7,5/7,
{8}5bxh[8:1]/7bxh[8:1],,5/7,,6/8,,1/7,,
{4}2bh[8:1]/8bh[8:1],3h[8:1]/4h[8:1],1bh[8:1]/7bh[8:1],5h[8:1]/6h[8:1],
{4}2bxh[8:1]/4bxh[8:1],1bxh[8:1]/3bxh[8:1],2bxh[8:1]/8bxh[8:1],1bxh[8:1]/7bxh[8:1],
{16}6/8,,6/8,,4/7,,6,5,6,,2/5,,2/5,,3,4,
{16}3,,2,1,2,,3/7,,3/7,,1,,2h[8:5],,8h[2:1],,
{8},,,,,,,B6f/B7,
{16},,2,1,2,,8/3,,5/4,,6,,7/1,,2,,
{16}7b/3b,,6,5,6,,7,,1-3[8:1],,8-4[8:1],,1,,8,,
{16}2,,3,4,3,,2,,5-7[8:1],,4-8[8:1],,5,,4,,
{8}5,5h[8:1],6h[8:1],7h[8:1],4h[8:1],3h[8:1],2h[8:1],8,
{8}8-6[8:1],1-5[8:1],8-4b[8:1],1>3b[8:1],8b<6b[8:1],1b-5b[8:1],8b,1b,
{16}8x,,3,4,3,,2,,7-4[8:1],,1-5[8:1],,7,,1,,
{16}8,,6,5,6,,7,,2-5[8:1],,8-4[8:1],,2,,8,,
{8}3,3h[8:1],2h[8:1],1h[8:1],5h[8:1],6h[8:1],7h[8:1],4,
{8}4>2[8:1],5<7[8:1],4-8b[8:1],5-1b[8:1],4b-2b[8:1],5b-7b[8:1],4b,5b,
{16}2x,,8,1,7-5[8:1],,8-4[8:1],,7-3[8:1],,8-2[8:1],,7,,8,,
{16}6,,4,5,3-1[8:1],,4-8[8:1],,3-7[8:1],,4-6[8:1],,3,,4,,
{8}1h[8:1],2h[8:1],3h[8:1],5h[8:1],6h[8:1],7h[8:1],1-5[8:1],8-6[8:1],
{8}1-3[8:1],8-4[8:1],1-6b[8:1],8-5b[8:1],1b-4b[8:1],8b-3b[8:1],1b,8b,
{16}1x,,6,6,5-3[8:1],,8-4[8:1],,5-1[8:1],,8-6[8:1],,5,,8,,
{16}2,,3,3,4-8[8:1],,1-3[8:1],,4-6[8:1],,1-5[8:1],,4,,1,,
{8}7h[8:1],6h[8:1],5h[8:1],4h[8:1],3h[8:1],2h[8:1],7-4[8:1],1>3[8:1],
{8}7<5[8:1],1-4[8:1],7-3b[8:1],1>4b[8:1],7b<4b[8:1],1b-5b[8:1],7b,1b,
{4}8,8,4/5,2/7,
{8}1-5[8:1],,6,,7-5[8:1],4-8[8:1],7,4,
{8}7-3[8:1],,4pp4[4:1],,8/4qq4[4:1],8,7,7,
{8}6-8[8:1],,5,,3/4,3,5/6,6,
{8}1/2,3,7/8,6,2/8,4,1/7,5,
{8}8-4[8:1],,3,,2-4[8:1],5-1[8:1],2,5,
{8}2-6[8:1],,5qq5[4:1],,1/5pp5[4:1],1,2,2,
{8}3-1[8:1],,4,,6/5,6,4/3,3,
{8}8/7,5,2/1,4,7/1,6,8/2,3,
{4}A5h[1:1]/B5h[2:1]/E5h[4:1]/E6h[4:3],,1,2,
{48}B2,C,B6,,,,,,,,,,
E
