&title=GALACTIC WARZONE
&artist=Akira Complex
&first=0.515
&des=Yoru the Conqueror
&lv_5=14+
&inote_5=(174)
{32}1bp7[8:28]b,2/8,3/7,4/6,5bp3[32:108],,,,
{1},,,{4},,,
{8}7/3,3,7,3,6,3,5,3,4,3,3,5,2,2,5,1,
{8}E2h[8:6]/E6h[8:6],,,B5h[8:3]/B6h[8:3]/B1h[8:3]/B2h[8:3],,,C,,
{6}1h[6:1],2h[6:1],3h[6:1],4h[6:1],5h[6:1],6-2[12:1],
{16}2b,,Cf,,
{16}1,8,2,,,,8,1,7-5[8:1],,,,
{16}7V15[8:2],,2-4[8:1],,7,,2,,,,3/6,2/7,1-4[8:1]/8-5[8:1],,,,1/8,Cf,,,
{16}6,5,7,,,,3,4,2-7[8:1],,,,
{16}2q5[8:2],,8-4[8:1],,2,,8,,,,3/6,2/7,1-4[8:1]/8-5[8:1],,,,1/8,Cf,,,
{16}3/7,2/6,1/5,,,,8-5[8:1]b/4,1/5,2-7[12:1]/6,,8b,,2,,,,
{16}6/1,7/2,8/3,,,,3/8-4[8:1]b,2/7,1<2[8:4]/6,,8b,,1,,,,,,,,,,,,
{16}5z1[8:2]/4s8[8:2],,3/6,,
{16}5/4,,C,,,,,,{4}B2h[4:2]/E2h[4:2]/E3h[4:2]/E8h[4:2]/B7h[4:2]/E7h[4:2],,Cf,
{16}3h[16:3]/5,,,5,,3-1[12:1],4,,3,,,,
{16}8-4[12:1]/7-5[12:1],,,,8/7,,,1h[16:2]/3,,,3h[8:1],,8-6[12:1],4-8[12:1],,8,4,,,,
{16}7h[16:3]/1,,,1,,7-3[12:1],8,,7,,,,
{16}5-1[12:1]/6-8[12:1],,,,5/6,,,4h[16:2]/3,,,3h[8:1],,5-1[12:1],2-5[12:1],,5,2,,,,
{16}7b-4[16:1]/8h[16:2],,,7,,,3b-8[16:1],,4,3,,,Ch[8:1],,,,
{16}7b-2[16:1]b/8h[16:2],,,7,,,3b-6[16:1]b,,4,3,,,
{16}7x,6x,7x,6x,7,6,7,6,
{24}7b,8,1,2,3,4,5/6b,7,8,1,2,3,
{8}4q5[16:7]/5<4[16:7],,,,,,B1/B2/E3/B3/B4/B5/B6/E7/B7/B8`Cf,,
{4}7bv4[8:1]/3bV57[8:2],7xV13[8:2]/3x,
{8},5,6xpp1[8:3],,6/2-5[8:1],,2x<7[8:3],,6>3[8:1],,6x,
{16}E3/E7,E2/E6,E1fh[16:1]/E5h[16:1],,,,
{8}8v3[16:1],7h[16:3],8,,8v3[16:1],7h[16:3],8,,8v3[16:1]b,7h[16:3],8,,
{8}2-8[16:1]/6-4[16:1],,
{4}2b-5[8:1]/6b>8[8:3],2xV86[8:2]/6x,
{8},4,3xp2[8:3],,3/8<5[8:1],,8xv7-5[8:3],,1v4[8:1]/8,,1x,
{16}E4/E6,E3/E7,
{8}2x-4[16:1]/7x-5[16:1],,2b/7b,2xz6[8:1]/7xs3[8:1],,2b/7b,,
{32}1,8,7,6,
{16}5/1b-6[16:1],,,7b-4[16:1],,,5b-2[16:1],,,3b-8[16:1],,,4h,,4h,,
{4}2bv5[8:1]/6bV42[8:2],2V86[8:2]/6,
{8},4,3qq8[8:3],,3/7-4[8:1],,7>2[8:3],,3<6[8:1],,3,
{16}E7/E3,E8/E4,E1h[16:1]/E5fh[16:1],,,,
{8}1v6[16:1],2h[16:3],1,,1v6[16:1],2h[16:3],1,,1v6[16:1]b,2h[16:3],1,,
{8}7-5[16:1]/3-1[16:1],,
{4}7bv4[8:1]/3b<1[8:3],7V13[8:2]/3,
{8},5,6q7[8:3],,6/1>4[8:1],,1v2-4[8:3],,8v5[8:1]/1,,8,
{16}A3/A6,A2/A7,
{8}1x-3[16:1]/8x-6[16:1],,1b/8b,1xz5[8:1]/8xs4[8:1],,8b/1b,,
{32}8,1,2,3,
{16}4/8b-4[16:1],,,1b-5[16:1],,,2b-6[16:1],,,3b-7[16:1],,,4>3>2<1<8<7<6>5[4:15]b,,4,,
{1}4bz8[8:4],8xz4[8:4],5xs1[8:4],1xs5[8:4],
{4}7bh[4:1],{24}E8f,B8,B1,E2,,,
{4}3bh[4:1],{24}E4f,B4,B5,E6,,,
{4}8bh[4:1]/4h[4:1],{24}E1f/E5,B1/B5,B2/B6,E3/E7,,,
{4}1h[4:1]/5bh[4:1],{24}E1/E5f,E8/E4,E7/E3,E6/E2,,,
{8}1h[16:1]/2h[16:1],1h[16:1]/2h[16:1],8h[16:1]/3h[16:1],8h[16:1]/3h[16:1],
{8}7h[16:1]/4h[16:1],7h[16:1]/4h[16:1],6h[16:1]/5h[16:1],6h[16:1]/5h[16:1],
{16}3,4,3,4,
{32}3q5[8:3],2,1,8,7p5[8:2],6,5,4,
{4}3b/7b,,
{24}2b/6b,3/7,4h[12:1]/8h[12:1],,,,4h/8h,3/7,2h[12:1]/6h[12:1],,,,2h/6b,3/7,4h[12:1]/8h[12:1],,,,4h/8h,3/7,2h[12:1]/6h[12:1],,,,2b/6h,3/7,4h[12:1]/8h[12:1],,,,4h/8h,3/7,2h[12:1]/6h[12:1],,,,2h/6b,3/7,4h[12:1]/8h[12:1],,,,
{16}2x,6x,2x,6x,
{24}7b/3b,6/2,5h[12:1]/1h[12:1],,,,5h/1h,6/2,7h[12:1]/3h[12:1],,,,7h/3b,6/2,5h[12:1]/1h[12:1],,,,5h/1h,6/2,7h[12:1]/3h[12:1],,,,7b/3h,6/2,5h[12:1]/1h[12:1],,,,5h/1h,6/2,7h[12:1]/3h[12:1],,,,7h/3b,6/2,5h[12:1]/1h[12:1],,,,
{16}6x,2x,6x,2x,
{32}1b/5b,2/6,3/7,4h[16:1]/8h[16:1],,,,,4h/8h,3/7,2/6,1h[16:1]/5h[16:1],,,,,1b/5b,2/6,3/7,4h[16:1]/8h[16:1],,,,,4h/8h,3/7,2/6,1h[16:1]/5h[16:1],,,,,1b/5b,2/6,3/7,4h[16:1]/8h[16:1],,,,,4h/8h,3/7,2/6,1h[16:1]/5h[16:1],,,,,1b/5b,2/6,3/7,4h[16:1]/8h[16:1],,,,,
{16}2xh,6xh,2xh,6xh,
{8}2xbV47[8:1],,,8xbw4[8:1],,,,
{32}1,8,7,6,
{16}5/1b-4[16:1]b,,,6b-3[16:1]b,,,5b-8[16:1]b,,,2b-7[16:1]b,,,1,,1,,
{16}8bh/1b,2,3,4,5/1h,4,3,2,1/8h,2,3,4,5/1h,4,3,2,1/8h,2,3,4,5/1h,4,3,2,1/8h,2,3,4,
{16}5xh,6xh,5xh,6xh,
{16}5bh/6b,7,8,1,2/6h,1,8,7,6/5h,7,8,1,2/6h,1,8,7,
{16}6/5xbh,5x,5x,5x,5,6,5,7,5/8,4/7,3/6,2/5,
{32}1/4,8,7,6,5,4,3,2,
{4}1b<6[8:1]/8b>3[8:1],,
{16}5,5,5-3[16:1]*-7[16:1],5b,,,,,
{16}1h[8:1]/2h[8:1],,,8h[16:2]/7h[16:8],,,8,,
{32}1,2,3,4,5,6,,8,1bh[8:1],,,,
{48}B1f`E2`E1,B2`B8,B3`B7,E4`E7,,,
{8}8xb<5[16:1]/4xb>1[16:1],,8x/4x,4xbq8[8:1]/8xbq4[8:1],,8/4,,
{32}1,2,3,4,
{16}5/1b-5[16:1]b,,,2b-6[16:1]b,,,3b-7[16:1]b,,,4b-8[16:1]b,,,5,,5,,
{1}5bh[4:15],,
{8}B6,,,B8,,,B2,,,B4,,,E7,C,E3,,
{8}E8fh[8:16]/B7h[8:16]/B8h[8:16]/E4fh[8:19]/B3h[8:19]/B4h[8:19]/Chf[8:22],,
{4},,,
{1},,
{6}8h[6:1],7h[6:1],6h[6:1],5h[6:1],4h[6:1],3h[6:1],
{8}8b<4v6v4<8[8:12],,3h[8:1],,3h[8:1],,3h[8:1],,A6f`3h[8:1],,2h[8:1],,1h[8:1],,1x`A8f,1x,
{8}1b-3v4-6-4v3-1[8:12],,8h[8:1],,8h[8:1],,8h[8:1],,8h[8:1]`A6f,,7h[8:1],,6h[8:1],,6x`A1f,6x,
{8}3b/4b,3/4,5/2,5/2,6/1,6/1,8xh[16:1]/7xh[16:1],8xh[16:1]/7xh[16:1],
{8}1b/2b,1/2,8/3,8/3,7/4,7/4,5xh[16:1]/6xh[16:1],5xh[16:1]/6xh[16:1],
{16}1b,8,2,7,3,6,4,5,4b,5,3,6,2,7,1,8,
{32}1b,8,7,6,5,4,3,2,1,8,7,6,5,4,3,2,
{16}1xbw5[16:1]b,1xb,1xb,,1b>4[8:1]`B1`Cf`B5,,,,
{16}1xb-5[8:1]/5x,,,5,1x-6[8:1],,6,,1x-4[8:1]/6,,,5,1x-5[8:1],,5,,
{16}1b-6[8:1]/6,,,6,1x-4[8:1],,7,,1x-5[8:1]/7,,,8,1x>4[8:1]b,,8,,
{16}1b-5[8:1]/8b-6[12:1],,,E1,8x-4[8:1]/1x-3[12:1],,E1,,8x-5[16:1]/1x-4[16:1],,,E1,8x>3[8:1]/1x<6[8:1],,E1,,
{16}8b-3[16:1]/1b-6[16:1],,,E1,8x/1x,,C,,2xh[8:1]/7xh[8:1],,,,8b<5[8:1],8b,8b,,
{16}8xb-4[8:1]/4x,,,4,8x-3[8:1],,3,,8x-5[8:1]/3,,,4,8x-4[8:1],,4,,
{16}8b-3[8:1]/3,,,3,8x-5[8:1],,2,,8x-4[8:1]/2,,,1,8x<5[8:1]b,,1,,
{16}8b-4[8:1]/1b-3[12:1],,,E1,1x-5[8:1]/8x-6[12:1],,E1,,1x-4[16:1]/8x-5[16:1],,,E1,1x<6[8:1]/8x>3[8:1],,E1,,
{16}1b/8b,,,,Chf[8:2]/7xh[8:1],,,,
{32}7b,8,1,2,3,4,5,6,7,8,1,2,3,4,5,6,
{16}7b,2,7,2,8,1,8,1,4b,3,4,3,5,2,5,2,
{16}5b,6,7,8,1/5,2,3,4,5/1b,6,7,8,1/5,8/4,7/3,6/2,
{16}1b,5,1,5,2,4,2,4,8b,6,1,7,8,6,1,7,
{16}8b,1,2,3,4/1,2,3,4,5/2b,3,4,5,6/3,4,5,6,
{16}7b,2,7,2,
{24}8,1,8,1,8,1,
{16}7b,2,6,3,5,4,5,4,
{16}6b,3,6,3,
{24}5,4,5,4,5,4,
{16}5b,6,7,8,4,3,2,1,
{16}8b,7,8,7,
{24}1,6,1,6,1,6,
{16}2b,5,2,5,
{24}3,4,3,4,3,4,
{16}1b,5,8,4,
{16}7>7[8:4]/3,8>8[8:4]/4,1>1[8:4]/5,2>2[8:4]/6,3b<3[8:4]/7b,,,,,,,,
{1}3b-7[4:7],,
E
