&title=Wolves Standing Towards Enemies
&artist=Camellia
&first=1.016
&des=Slug
&lv_5=14+
&des_5=Slug
&inote_5=
(191){4},,,,{32}2,
1/3,4/8,7/5,{8}6>1pp4[8:11],,,{2}7xh,
8xh,1xh,
8s4<7<4[4:5],4,
3,2,
1h[4:7]/8h[4:1],6h[4:1],
4h[4:1],2,
6-4>2-8-5[1:1],8z4[2:1],
{16},,,,,,,,3,2,1,8,7,6,5,4,
{8}3-8[8:1]/7-4[8:1],,,,,5,,6/4,
{24},,,5,3,5,{4}3-8[8:1],3/1<6[8:1],5,
4,{8}4/3,2-6[8:1],,2v4[8:1]*v8[8:1],,,,7h[4:1]/5h[4:1],
,,,B7/B5/B4/B8,,,{4}5,
{8}4,5<7[8:1],,5/2,,4/8h[24:5],
{24},,,B7,B6,E6,{4}5x/4x,3,5,
5,{8}6/2,6,{16}1,2,8x/3,7,6/2,3,6/4,5,
{8}3bh[8:1]/4bh[8:1],,,5b/7b,{16}8,7,1x/6,2,3/7,6,3/5,4,
{8}6bh[8:1]/5bh[8:1],,,4b/2b,{16}3,5,4,6,4,5,{8}3,
4bh[8:1]/2bh[8:1],,,5b/7b,{16}6,4,5,3,5,4,{8}6,
5bh[8:1]/7bh[8:1],,,8b-5[8:1]/1b-4[8:1],7b/2b,8b/1b,,,5/4,
3,{16}3,5,{8}4,6,6/4,{16}5,3,{8}4,
2/4,3,{16}3,5,{8}4,6,6/4,{16}3,6,{8}4,
4/6,3,{16}3,6,{8}5,7,7,{16}4,6,{8}3,
2/4,3,{16}3,5,{8}4,6,6/4,5,3,
{4}2/4-1[8:1],6/4-7[8:1],2/4>1[8:1],6/4<7[8:1],
{8}2/4v1[8:1],3,6/4v7[8:1],5,2/4-8[8:1],3,6/4,5,
4,3,2,1,2/8,3/7,6/4,5z1z5[8:5],
,,,,,,,,6/2-6[8:1],
2/6-2[8:1],{4}6/2,{8}7h[16:1],7h[16:1],7h[16:1]/1q5[8:1],7h[16:1],
1/7h[16:1],7h[16:1],7-4[8:1],4-6[8:1],3,2,{4}1-3[8:1]*-7[8:1],
1,{16}4,5,{8}3,6/2-4[8:1],2,7-3[8:1],7,
{4}7pp5[8:3],4-1[8:1],4,6/2,
{8}3/7-3b[8:1],7/3-7[8:1],{4}3/7,{8}2b,2b,2b/8p4[8:1],2b,
8/2b,2b,2b-5[8:1],5v3[8:1],6,7,{4}8-6[8:1]*-2[8:1],
8,{16}5,4,{8}6,{6}7/3,6/2,{12}1h/5pp8b[24:13],5h/1pp4[24:11],
,,,,,,,,,,,,{4}6h[8:1]/5h[8:1],
5h[8:1]/4h[8:1],{32}2/1h[8:1],3,{16}4,{32},,,,7/8h[8:1],6,{16}5,{32},,,,3/1h[32:3],
4,5,6,,,,,6/8h[32:3],5,4,3,,,,,{8}5-8[8:1]/1-4[8:1],4-1[8:1]/8-5[8:1],{16},,,,,,,,2,
4,2,4,8,7,8,7,E8,B8,B1,E2,
{8}C,E7/E3,{4}E6/E5/E4,{6}4x/5x,4x/7x,5x/2p8-6-4[12:11],
{12},,,,,,{4}6,4-6-8q2[12:11],
,5,{2}6,
{8}8h[8:3],,,1-4[8:1],3/7-3[8:1],1<3[4:1],7,1,
{16}B1,B2,B3,B4,B5,B6,{8}B7,{4}B8/B1,7h[8:1]/2h[8:1],
{8}7/1,8,6/1,7/2,8,1/7,8/2,3,
7/1,8,6/1,7/2,8,1/2,1/8,7/2,
3/8h[8:1],4,6/5h[8:1],7,1/8h[8:1],2,6/4h[8:1],6,
5/8h[8:1],5,6x/3x,{24}1,8,2,,,,{8}1,7x/8x,{24}7,8,6,
,,,{8}1h,E7/B7/B6,{16}E3,B3,B4,E5,E1,B8,B7,E7,{48},,,,,,{6}1,
8/2,7/3,6/1,5/2,6/3,
{8}8bh[8:1],{32}3,4,5,6,{8}1bh[8:1],{32}5,4,3,2,,,,,7,6,5,4,{8}3bx/1bh,{32}8/4,5/1,2/6,3/7,
B8/B4,,,,,E7/B6/B7,,,,,,B2/B3/E3,,,,,,A5/A4,E6/E4,B6/B3,{8}B7/B2,,,6/4,
5,7/4,6/3,5,4/3,4/5,5/6,
4/7,5,7/4,6/3,5,4/3,4/5,6/3,
2-4[8:1],2,7-1[8:1],7,5,4,{4}8/3-8[8:1],
{6}3/7,6,8/5v2b[6:1],1,3,4,
{4}8,{32}3,4,{16}5,{32}7,6,{16}5,3,6,4,5,2,4,3,3,
6,5,7,3,4,2,7,8,6,2,1,3,{24}4>4[2:1],8,4,8h[24:29],,,,,,,,,,,,,,,,D4,
A3,D3,A2,D2,A1,D1,,D8,A7,D7,
A6,D6,A5,D5,A4/A8,D4/D8,A3/A7,D3/A7,D7/D3,A6/A2,D6/D2,A5/A1,{2}D1/D5/Ch[4:1],
{24}5/E2/A1/D2/A2,6,{12}7,{24},,,,,2/6h[8:3],3,4,{48},,,,,,,,,,,,{16}2,3,4,5,
6b,4,5,3,4,2,5,3,4,3,4,3,5,2,{8}4,
{24}1/E6/A5/D6/A6,2,{12}3,{24},,,,,5/E2/A1/D2/A2,6,7h[24:7],{48},,,,,,,,,,,,{16}3,2,1,8,
7b,1,{8}1,{16}8,2,{8}2,{16}1,3,8,2,{8}7,1,
{24}5/E2/A1/D2/A2,6,{12}7,{24},,,,,1/E6/A5/D6/A6,2,3h[24:7],{48},,,,,,,,,,,,{16}7,6,5,4,
3b,5,4,6,5,7,4,6,5,6,5,6,4,7,{8}5,
{24}8/E4/A4/D4/A3,7,{12}6,{24},,,,,3/E8/A8/D8/A7,2,1,{48},,,,,,,,,,,,{16}8b/2b,7,6,5,
{12}4/3,3,3,1,1,1,7,7,{24}7,{96},,,,,,,,,,,,,,,,A5f,,,A4/A6,,,{32}A3/A7,A2/A8,
{1}1xh[4:15],
,,,3x-6[2:5],
4,
{2}7,{4}1,8,
{2}6p2[16:3]/7q3[16:3],{16}A1,D2,A2,D3,A3,D4,A4,D5,
{4}5bx/6bx,{8}6/A3,B3,5,B2,5,E2,
5,{16}B1,B2,{4}6/B3,6/B4/E4/B3,2/B6/E6/B5,
2/B6,{8}2/B7,E8,2,A8,2,E8,
2,C,2,A6,{4}2,2,
5b/3b,{8}4/B5,B6,4,B7,4,E8,
4,{16}B8,B7,{4}3/B6,3/B5/E6/B6,7/B3/E4/B4,
7/B3,{8}7/B2,E2,{16}6,5,4,3,6,5,4,3,
{8}6b/2bh[4:1],,,7b/8bh[4:1],{16},,,,6,6,5,7,
{8}8b/4bh[4:1],,,2b/6bh[4:1],{16},,,,3,5,4,6,
{8}5b/7bh[4:1],,,2b/4bh[4:1],{16},,,,2,6,3,5,
{8}4bh[4:1],{32},,,,,,,,B4,B3/B5,B6/C/B2,B1/B7,{8}E8/B8/E1,1bxh[8:1]/7bxh[8:1],,,7/1,
7,7/B1,7,7/2,7,7/B2,7,
6/1,6,6/B1,6,6/2,6,6/B2,6,
2/8,2,2/C,2,2/7,2,2/C,2,
3/8,3,3/C,3,3/7,3,3/C,3,
{16}6,2,6,2,6,2,6,2,6,2,6,2,6,2,6,2,
7,1,7,1,7,1,7,1,7,1,7,1,7,1,7,1,
8,8,8,8,8,8,8,8,8,8,8,8,8s4z8[4:3],8,8,8,
{1}8,
{8}4b,{16}5-1[8:1],8,{8}2x-6-4b[16:3],5,{4}2,{16}8,7,6,5,
4b,6,5-1[8:1],8,{8}2>4[8:1],5,{4}2,{8}6,6/5,
2/5,{16}3,4,{8}5/2,{16}6,5,{8}4/7,{16}3,4,{8}5/1x,{16}6,5,
{8}4/8x,{16}3,1,3,8,2,8,{32}1,8,7,6,5,4,3,2,{4}8b/1b,
{8}5b,{16}4-2[8:1],1,{8}7pp5[4:1],4,{4}7,{16}2,3,4,5,
6b,4,5-2[8:1],2,{8}7-4[8:1],5,{4}7,{8}2,6/3,
2/5,{16}3,4,{8}3,{16}6,5,{8}6,{16}3,4,{8}5/2,1,
{32}8b,7,6,5,,,7b,6,5,4,,,6b>8b[16:3],5,4,3,,,,,,,,,,,,,,,,,{16}3b,
6,4,5,{8}3,4/2,{16}5b,8,5,8,{32}1,2,3,4,5,6,7,8,
{16}5b,5,2,4,{8}1,7/8,{16}6b,1,6,2,{32}7bw3[8:1],6,5,4,3b,4,5,6,
,,,,,,,,,,,,{8}5/1,7,8/6,2,8x/4x,
,5x/6x,{16},8x/4x,,,{8}7x/2x,5/4,{4}5x/4xqq8[2:1],
{8}5,,,6pp1[2:1],{4}6,1,
,2-5[8:1]*-7[8:1],{2}2,
4p3V17[8:5],{8}6>3[8:1],6,{16},,,,2-5[16:1],
,,7-4[16:1],,,{8}3-8[16:1],{16},6-1[16:1],,,,1,2,3,
7b-4b[16:1],,,2b-5b[16:1],,,{8}6b-1b[8:1],{16},3b-8b[16:1],,,,8b,7b,6b,
{8}1q5[8:1],7,{16},,6,6,{8}4,3/7,{16}4,4,{8}5,
{16}6/3,,,5/2,,,{8}4/1<4[4:1],,,,,{4}8/1,
{8}8/1,2,7,1,2/8,3,
7/1,2,8,{16}1,7,,2,6,3,{8}5/E3/B3/A3,E6/B6/A6,
{2}3-5-2[4:1],{8}7,8-5-7[4:1],,1>5qq6b[2:1],
,,{4}8-6[8:1],{2}8,
{4}5/4,{8}5/4,3,6,4,3/5,2,
6/3,3,3/6,{16}7,4,7,5,6,4,7,5,{24}6,3,,4,
5,4,5,,,{4}7xh[4:1],{32},,,,8/2h[4:1],7,{16}6,{32},,,,,,,,4/5h[4:1],
3,{16}2h[16:3],,,,{64},,,{192},{96}2,,,,{32}1/3,{16}8h[16:5]/4h[16:5],{4},,{24}5/E2/A1/D2/A2,
6,{12}7,{24},,,,,2/6h[8:3],3,4,{48},,,,,,,,,,,,{16}2,3,4/7,6,
5,4,5,3,4,2,5,3,4,3,4,3,5,2,{8}4,
{24}1/E6/A5/D6/A6,2,{12}3,{24},,,,,5/E2/A1/D2/A2,6,7h[24:7],{48},,,,,,,,,,,,{16}3h,2,8h,7,
,1,{8}1,{16}8,2,{8}2,{16}1,3,8,2,{8}7,1,
{24}5/E2/A1/D2/A2,6,{12}7,{24},,,,,1/E6/A5/D6/A6,2,3h[24:7],{48},,,,,,,,,,,,{16}7,6,5,4,
3b,5,4,6,5,7,4,6,5,6,5,6,4,7,{8}5,
{24}8/E4/A4/D4/A3,7,{12}6,{24},,,,,A6/D6/A5/E6/A3,A2,A1,{16}A8,A7,A6,A5,A4,A3,A2,A1,
{12}5b,6,7h[6:1],1b,2,3,4/8,8/4,8/4,{24}4x-8[8:1],8x,4x,8x<8[8:29],4x,8x>8b[24:85],
{1}4bx,
E
