&title=This Will Be The Day
&artist=Casey Lee Williams
&first=0.05
&des=XVvictim
&lv_5=13+
&inote_5=(190)
{2},,,,,
{8},
{8}4/6h[8:3],,,5,,3,4,3,4h[4:1],,3,4h[4:1],,3,25,,
3h[8:3],,4,4,,6,5,6,5h[4:1],,6,5h[4:1],,6,7v6b[8:1]/4qq2[8:1],83,,,35,
{8}35,,2,3,6,4/7h[8:3],,,8,,2,12,,4,,53,53,,2,3,5,4/6h[8:3],,,5,,3,3/4-7[8:1],,
1,,28,28,,6,7,2,5^8[4:1]/3,,8^3[4:1],,3^6[4:1],,6,,8-4[8:1]b,,1,1,,2,3,6,73,,
{8}8^5-8[8:3]b/1^4z8[8:3]b,
{8},1b/8b,,,,2x,,3qq4[8:3],24,,,5,6,7-5[8:1],,75,,4v5[8:1]*-2[8:1],,4,,1x,,
{8}6pp5[8:3],75,,,4,3,2-4[8:1],,2/5-1[8:1],,5/8-5[8:1]*-3[8:1],,,,6x/4x,,
{8}6,7/5qq4[4:1],,5pp6[4:1],,5,2-6[8:1]*pp4[8:1],,2,,1v4[8:1]/7v4[8:1],,17,,
{8}2,2V46[4:1],,6V82[4:1],,2,,5,54,54,56,56,52,52,57,57,5b/1bs5[1:1],,,,
{4},,7h[4:3],,,
{16}5s1[1:1]*s1[1:1],6,4,5,
{4},,,,2h[4:3],,,
{8}1b,8p4[8:1]/3,,,1q5[8:1],,8,8,7,7^4[8:1]/1,,,1q5[8:1],,8,8,7,7,
{8}4b/3b,2,2,2,5b/6b,7,7,7,
{16}25,,25,,3,4,3,4,{16}2,,2,,6,5,6,5,
{8}7b-4[8:1],2,7,1,8^3[8:1],8,6,7-4[8:1],2,7,8,
{32}1bxq5[8:1]b,2bx^5[8:1]b,3bx,,
{8},,,,2-5[8:1],7,2,8,1^6[8:1],1,4,3-6[4:1],,6-1[4:1],,1-4[4:1],,4p5[4:1]*v5[4:1],,E4f,,,
{8}3h[4:1],4,6h[4:1],5,2h[4:1],4qq3[16:3],5,,6<3[4:1],7,,5-1[8:1],,,8b,,
{8}6h[4:1],5,3h[4:1],4,7h[4:1],5,
4-8[8:1]b,3,24,1,
{16}56,,4,,2,1,2,,
{8}6b-1[8:1],3,6,4,5^2[8:1],5,1,8^5[8:1]*^3[8:1],,8b,,
{32}7bx/2bx,3bx/6bx-1[8:1]b,4bx/5bx-1[8:1]b,,
{8},5bx/6bx,,,
{8}3-8[8:1],6,3,5,4^7[8:1],4,1,2^5[8:1]b,,21,,6pp5[4:1]b,,64,,
{32}1x,,E4,E3,E2,E1,E8,E7,E6,E5,Cf,,
{8},,,
{384}1x-5[8:1],8x-2[8:1],,,,,,,,,,,,,,,,,,,,,,,,,,,,,,,,,,,,,,,,,,,,,,,
{8},18,,8x,7x,,65,6,34,,
{16}28,,6,5,6,,34,,,,1x-4[8:1]/7xh[4:1],,,,
{32}1x,E7,B6,B5,E5,,,,
{16}3x,,
{8}2x/7x,,34,3,65,,
{16}71,,3,4,3,,65,,,,1xh[4:1]/8xh[4:1],,,,
{32},E2f/E8f,B2/B7,B3/B6,E6/E4,,,,
{16}3x/6x,,
{8}1x/8x,,65,6,34,,
{8}2b/8b,3,4,1b/7b,6,5,18,2,
{16}6,5,6,3,4,3,7,5,7,2,4,2,
{32}7,6,5,4,3bx^6[8:1]b/8bx-4[8:1]b,
