&title=Everything Will Be One
&artist=void (Mournfinale)
&first=0
&des_5=小小鳥遊さん
&lv_5=14+
&des=小小鳥遊さん
&clock_count=4
&inote_5=(170)
{1},,
{16}
6h[4:2]/3,,,,,,,,8h[4:2],,,,,,,,
2h[4:2],,,,,,,,4h[4:9],,,,,,,,
3q6[4:2],,,,,,,,,,,,,,,,
6p3[4:2],,,,,,,,,,,,,,,,
8h[4:2]/1,,,,,,,,6h[4:2],,,,,,,,
4h[4:2],,,,,,,,2h[4:9],,,,,,,,
3p8[4:2],,,,,,,,,,,,,,,,
8-3[4:1],,,,,,,,,,,,4,,,,
25,,2V46[8:3]/5s1[8:3],,,,,,,,,,,,,,
85,,8^5[8:1]/5-1[8:1],,,,8/5,,,,,,24,,,,
64,,6p4[8:3]/4>8[8:3],,,,,,,,,,,,,,
14,,1^4[8:1]/4-8[8:1],,,,1/4,,,,,,75,,,,
48,,4V28-3[8:3]/8V64-7[8:3],,,,,,,,,,,,,,
62,,6pp5[8:3]/2pp1[8:3],,,,6/2,,,,,,,,,,
48,,4v7[8:1]/8v3[8:1],,,,4^1[8:1]/8^5[8:1],,,,,,,,,,
Ch[4:2]/1>8[4:2],,,,,,,,,,,,1w5b[8:1],,,,
1b/Cf/B3/B7,,,,,,,,,,,,65,4,3,2,
1qq4[8:3]/7h[8:2],,,,,,5h[8:4],,,,,,,,3,2,
1h[16:3],,,3h[16:3],,,4,,7h[16:3],,,6h[16:3],,,5,,
8,1,2,3,8,7,6,5,{24}E2,E3,E4,E8,E7,E6,A2,A3,A4,A8,A7,A6,
{16}3xh[8:2]/5x-1[4:1],,,,,,7h[8:3],,,,,,8,1,2,3,
4-8[4:1]/6h[8:3],,,,,,2h[8:3],,,,,,5h[8:2],,,,
1,2,3,8,1,2,7,8,1,6,7,8,4h[4:1],,,,
{24}1,,1,,3,,6,,6,,4,,{16}7,8,7,8,{24}6,5,4,3,2,1,
{16}8-5[8:9]/B3f/E3/E4,,,,,,,,2,,,2h[16:3],,,,,
3,,,3h[16:3],,,,,46,,,6h[16:3]/4h[16:5],,,,,
7h[4:1],,,,{24}D6,A5,D5,E7,B6,B5,{16}B3h[4:1],,,,C,,,,
1-4[4:1],,,A8,,,A7,,6-1[4:1],,,B5,,,E4,,
{24}2h[4:4],,,,,,3,4,5,,,,4,5,6,,,,5,6,7,,,,
{16}6,7,8,1,2,3,4,5,62,1,8,7,6,5,4,3,
2/8^5[16:3],,,,1h[4:1],,,,4,3,2,1,84,73,62,51,
4pp8[8:4]/8pp4[8:4],,,,,,,,,,,,,,,,
Cf/B2/B3/B6/B7,,,,,,,,2/8,,,,3V57[8:2]/7,,,,
,,,,8h[8:2],,,,2,,2h[8:3],,4,,,,
5v8[4:1],,,,,,,,4^1[4:1],,,,1s5[8:3],,,,
,,,,7h[8:2],,,,4,,4,,35,,35,,
6V82-4[4:2]/2,,,,,,,,4q7[4:2],,,,2,,,,
,,,,1h[8:2],,,,7,,7h[8:3],,5<3[4:2],,,,
5,,,,,,,,4h[4:1],,,,3,,17,,
6,,6,,4,,4,,
3^5[8:1]/7^5[8:1],,28,,,,,,
3h[8:1]/5x-3[8:1],,,,3/5,,,,4/2h[8:1],,,,4/2h[8:1],,,,
5-8[8:1]/1h[8:1],,,,52,,,,1/3h[8:1],,,,5/3h[8:1],,,,
6h[8:1]/4-6[8:1],,,,6/4,,,,5/7h[8:1],,,,5/7h[8:1],,,,
4-1[8:1]/8h[8:1],,,,47,,,,8/6h[8:1],,,,4/6h[8:1],,,,
3-8[8:1]/5,,,,3/7-4[8:1],,,,2-6[8:1]/7,,,,2/5-1[8:1],,,,
4-8[8:1]/5,,,,4/6-1[8:1],,,,2-5[8:1]/6-3[8:1],,,,26,,,,
7b/1b,,,8,8,,17,,26,,26,,35,,35,,
4,6,4,6,3,7,3,7,{24}2,3,4,8,7,6,1-6b[8:1],2,3,7,6,5,
{16}
1b/4bxh[4:6],,,,,,,,,,,,,,,,
6,,,,6,,,,{24}6,7,8,1,2,3,{32}5v8[8:1]*v2[8:1],6,7,8,1,2,3,4,
{16}A5,,,,37,,4,6,1,,35,,28,,7,7,
4,6,5,7,1h[8:1],,8,2,4,,35,,17,,46,,
2-6[8:1]/8-6[8:1],,,,2/8-3[8:1],,,,8^5[8:1],,5,,8^3[8:1]/4-7[8:1],,2,,
4-1[8:1]/8,,,,4-6[8:1],,6,,4V28[8:1]/7-4[8:1],,,,47,,,,
{16}1b/5b,,,,62,,5,3,8,,64,,71,,2,2,
5,3,4,2,8h[8:1],,1,7,5,,64,,82,,53,,
6-1[8:1]/2v5[8:1],,,,6-4[8:1]/2-4[8:1],,,,6-8[8:1]/2-8[8:1],,,,6-2[8:1]/2-5[8:1],,,,
6V84-2[8:3]/2,,,,3,,2,,1w5[8:1],,,,1,,,,
3b/7b,,,,26,,3,5,1,,82,,47,,6,6,
2,4,3,5,1h[8:1],,8,2,4,,35,,81,,46,,
2q6v3[4:1]/1,,,,5,,7,,8p4v7[4:1],,,,3,,2,,
1-4[8:1]*-3[8:1],,,,1-6[8:1]*-7[8:1],,,,1q5[8:1]*v4[8:1],,,,1,,,,
6b/2b,,,,73,,6,4,8,,17,,52,,3,3,
7,5,6,4,8h[8:1],,1,7,5,,64,,18,,52,,
6h[8:3],,,,,,E4,E3,E2,E1,E8,E7,E6,E5,E4,E3,
5,6,7,8,12,3,4,5,6/1-5[8:1],8,7,6,5/1,,,,
4b/8b^3[8:1],,7,7,8v5[8:1],,6,6,8,,7,7,4,3,2,1,
8/6-2[8:1],,1,1,6^3[8:1],,3,3,6^1[8:1],,8,8,6,,2,2,
8,,7-4[8:1],4,6,5,7,,1,,2-5[8:1],5,3,4,2,,
8,7,4,3,7,6,3,2,{24}8,7,6,5,4,3,7-3[8:1],8,1,2,3,4,
{16}7b-1[8:1],,5,5,7-4[8:1],,2,2,7,,3,3,5^2[8:1],6,7,8,
1/5-1[8:1],,7,7,5qq7[8:3],,6,6,5^8[8:1],,,,,,,,
1,2,3,48,1,2,37,8,1,26,7,8,{24}1/5x,6,7,8,1,2,
7,,7,,5,,3,,3,,1,,{16}7,8,7,8,{24}6,5,4,3,2,1,
{16}8pp5[8:9]/B3/E3/E4,,,8h[16:13],,,,,,,,,,,,,
,,,,7,,7,,,,56,,6v1[8:1]/5q1[8:1],,,,
{32}5/6,Cf,,,,,,,{24}3,4,3,4,3,4,3v8[8:1]*q7[8:1],,,,,,3,,,,,,
{16}1h[8:1],,5,2h[8:1],,4,3h[8:1],,8h[8:1],,4,7h[8:1],,5,6h[8:1],,
{24}1bh[4:1],,,,,,3,4,5,{16}2,2,{24}4,5,6,{16}3,3,{24}5,6,7,{16}4,4,
8,2,8,2,6,3,5,4,7,8,6,1,5,2,4,3,
7^4[8:1]*^2[8:1],,,,7,,,,51,2,37,6,52,3,48,7,
{24}62,3,4,5,6,7,8,1,2,{32}37,6,5,4,3,2,1,8,72,3,4,5,6,7,8,1,26,37,48,51,
{16}2b-6[4:7]/6b-2[4:7],,,,,,,,,,,,,,,,
,,,,,,,,,,,,,,,,
,,,,,,,,,,,,,,,,
,,,,,,,,,,,,,,,,
3,,34,,3,4h[8:1],,2h[8:1],,3h[8:1],,4,4h[8:1],,,,
6,,65,,6,5h[8:1],,7h[8:1],,6h[8:1],,5,5h[8:1],,,,
A2,B2,C,B6,A1,E1,E8,A7,A3,E4,E5,A5,B2,C,B6,A6,
1,2,3,4,5,6,7,8,{32}16,5,4,3,2,1,8,7,6/Cf,,,,,,,,
{16}15,,1V35-2[8:3]/5V71-6[8:3],,,,,,,,,,,,,,
37,,3qq4[8:3]/7qq8[8:3],,,,3/7,,,,,,,,,,
7/4-1-5-2[8:5],,74,,A8/B8,,,,A7/B7,,,,A6/B6,,,,
51,,5-8[8:1]/1-4[8:1],,,,15,,,,,,7-3[4:7]/3,,,,
,,,,,,,,,,,,,,,,
2h[4:7],,,,,,,,,,,,,,,,
4>5[4:3],,,,,,,,,,,,,,,,
4q7[4:2]*qq8[4:2],,,,,,,,,,,,,,,,
E6/E2/Ch[1:1],,,,,,,,,,
,,,,,,
,,,,,,,,{24}8-4[8:1]/7v5b[8:1],16,25,34,,,{16}8b/7,,,,
2-5[8:1],1,3,8,2,,6,4,{24}7,6,5,8,7,6,2,3,4,1,2,3,
{16}7-4[8:1],8,6,1,7,,3,5,{24}2,3,4,1,2,3,7,6,5,8,7,6,
{16}2/5,,18,,7V52[16:3],4,5,2V48[16:3],,,1,,1,,,,
{16}7/3,,18,,2V47[16:3],5,4,7V51[16:3],,,8,,8,,,,
28,,37,,8^5[8:1],4,6,2,8,,1,,{24}4,3,5,4,,,
{16}26,5,41,2,{24}38,1,2,3,4,5,{16}62,3,47,6,{24}58,7,6,5,4,3,
{24}2x-5[8:1]/7x-4[8:1],,1x/8x,,1x/8x,,7b/2b/Cf/B5/B4,,,,,,1v4[8:1]*v6[8:1]/8,,,27,,,1,,,,,,
{24}37,,,8-3[8:1]/1,,,2,3,4,58,,,5-1[8:1],,,2,1,8,75,,,,,,
2-6b[8:1],4,2,4,2,4,2b,,,5,,,5-8[8:1],,,7,8,1,25,,,,,,
37,,,6-3[8:1]/5,,,4,3,2,16,,,1-5[8:1],,,4,5,6,7>4[4:1]/1,,,,,,
{16}73,,,8,8,,15,,26,,37,,48,,15,,
4,8,3,7,2,6,1,5,{24}8,4,8,4,8,4,7-2[8:1],3-6[12:1],7,3,7,3,
{16}E1/B8/B4/E5/Cf,,,,,,,,,,,,,,,,
E1,B1,B2,E3,E7,B6,B5,E5,{24}A1,A2,A3,B1,B2,B3,B7,B6,B5,A7,A6,A5,
4x-1[4:7],,,,,,,,,,,,,,,,
,,,,,,,,,,,,,,,,
,,,,,,,,,,,,,,,,
,,,,,,,,,,,,,,,,
E
