&title=Unlimited Hyperlink
&artist=Kobaryo
&first=0.145
&des=水桥帕露UN
&lv_5=14.5
&des_5=水桥帕露UN
&inote_5=
(232){4},,,,,,,,{1}8xV63[2:1]/1x-5-3[2:1],
7xq2[2:1]/8xs4[2:1],
6x<8-4[2:1]*-2>4[2:1],
5x-7-3-1[2:1]/4xv1-5[2:1],
{4}2-5[2:1],8,7,6,
7>2[2:1],5,4,3,
1p3[2:1],5,6,7,
5p7[2:1],1,2,3,
{16}6x,5x,6x,5x,,,6x,4x,6x,4x,,,6x,3x,6x,3x,
,,6x,2x,6x,2x,,,{4}8/7,6/1,
{16}3x,4x,3x,4x,,,3x,5x,3x,5x,,,3x,6x,3x,6x,
,,3x,7x,3x,7x,,,{4}6/5,7/4,
{16}1x,8x,1x,8x,,,1x,7x,1x,7x,,,1x,6x,1x,6x,
,,1x,5x,1x,5x,,,{2}1>4[8:1]/5<8[8:1],
{4}1-5[8:1],1/2,8-4[8:1],8/7,
5-1[8:1],5/6,4-8[8:1],3/4w8[4:1],
{1}Cf/4bx>5[2:3]*<3[2:3],
{4},,,,B8/E8,
E2/B2,B4/E4,B6/E6,
B8/B1/E1,B7/E7/B6,B4/E5/B5,B2/E3/B3,
{8}6/C/B4/B3,6,{4}6,{8}7/B1/E2/E1,7,{4}7,
{8}4/E7/D8/A7,4,{4}4,{8}3/E6/B5/C,3,{4}3,
{8}6,6,8,8,1,1,3,3,
{4}5/3bx>1[8:1],3/7bx-3[8:1],7/8-4[8:1],8/5,
{8}6b,7,8,1,2,3,4,5,
{16}6b,7,8,1,2,3,4,5,{32}6bx,7x,8x,1x,2x,3x,4x,5x,6x,7x,8x,1x,2x,3x,4x,5x,
{8}6x<8[8:1],6,1-3[8:1],1,7-4[8:1],7,1-5[8:1],1,
6-3[8:1],6,2-7[8:1],2,8-4[8:1],8,3-8[8:1],3,
6-2[8:1],6,4,4,3/1-5[8:1],3,{4}3,
{8}2-4[8:1],2,7,7,6/1-3[8:1],6,{4}6,
{8}8<6[8:1],5,8>2[8:1],3,8-4[8:1],4-6[8:1],,3,
1>3[8:1],4,1<7[8:1],6,1-5[8:1],5-3[8:1],,6,
8-5[8:1],2,8-3[8:1],3,8-4[8:1],4-1[8:1],,3,
{4}B2/E3/B3,C,B7/E7/B6,B3/B4/B5/B6/Cf,
{8}8-6[8:1],5,8,5,8-5[8:1],4,8,4,
8-4[8:1],3,8,3,8-3[8:1],2,8,2,
1-3[8:1],4,1,4,1-4[8:1],5,1,5,
1-5[8:1],6,1,6,1-6[8:1],7,1,7,
8-6[8:1],8,2-4[8:1],2,8<5[8:1],8,1-5[8:1],1,
7-4[8:1],7,3-7[8:1],3,6-3[8:1],6,1,1,
8,7,6,5,8/4,3,2,1,
{4}8b-5[8:1]*-6[8:1],8b-3[8:1]*-2[8:1],8bw4[8:1],Cf,
8/7h[4:1],5,5h[4:1]/2-4[8:1],2,
{8}6,6,5,5,4,4,3,3,
{4}1/2h[4:1],4,4h[4:1]/7-5[8:1],7,
{8}3,3,4,4,5,5,6,6,
{4}7h[16:3]/8h[16:3],E7/E1,6h[16:3]/1h[16:3],E6/E2,
2<1-4[4:1],4>3-8[4:1],5h[8:1],6h[8:1],
{32}7/2xh[8:1],6,{16}5,{32},,,,3/8xh[8:1],4,{16}5,{32},,,,2/5xh[8:1],1,{16}8,{32},,,,6/3xh[8:1],7,{16}8,,,{8}B6,
B5,B4,B3,A6,A5,A4,A3,
{4}8/1-3[8:1],1/7h[8:1],4/5-7[8:1],5/2h[8:1],
{8}3/1s5[4:1],4,5<8>2[8:3],4,{2}3,
{4}1/8-6[8:1],8/2h[8:1],5/4-2[8:1],4/7h[8:1],
{8}6/8z4[4:1],5,4>1<7[8:3],5,{2}6,
{4}2-4[8:1],2/1-5[32:5],1/8-4[8:1],8/7-5[8:1],
7/2-4[8:1],2/7-3[8:1],7/2-6[8:1],2/8<4[4:1],
4>8[4:1],8<8b[2:1],{2}Cf,
{8}E2,B2,B3,E4,E8,B7,B6,E6,
{1}5xh[4:7]/4xh[2:1],
{2}2>4[0.5172##0.3879],2,
{32}3h[4:7]/B7,B6,{16}B5,,,,,,,,,,,,,,,{2}7>8>1-4[0.5172##0.3879],
7,
{1}6xh[4:7]/5xh[4:3],
{32}E4,A3,{16}D3,{32},,,,,,,,,,,,B8,E1,{16}A1,,,,,,,{1}8xh[4:3]/1xh[4:3],
1-3-6[8:5]/5-7-2[8:5],
{4}1/B6,1,8/B4,7,
6/B2,6,5/B8,5,
1/A8,1,2/A7,2,
3/A6,3,4/A5,4,
{8}5/4h[4:1],6,{4}6,{8}4/5h[4:1],3,{4}3,
{8}6/3h[4:1],7,{4}7,{8}3/6h[4:1],2,{4}2,
{8}8,1,7,2,6,2,5,1,
{4}5<8[8:1]/1>4[8:1],1-6[8:1]/5-2[8:1],5-8[8:1]/1-4[8:1],1bx/5bx,
{2}6xh[4:1]/2xh[4:1],{8}1>3[0.5172##0.2586],4,4,4,
1-4[0.5172##0.2586],5,5,5,1-5[0.5172##0.2586],6,6,6,
1-4[0.5172##0.2586],7,7,7,1,6,6,6,
{2}2bh[4:1]/5bh[4:1],{8}8/1-4[0.5172##0.2586],8,8,8,
1/8v5[0.5172##0.2586],8,8,8,8/4v1[0.5172##0.2586],4,4,4,
4/7-2[0.5172##0.2586],7,7,7,7/3-6[0.5172##0.2586],3,3,3,
3/7-3[0.5172##0.2586],7,7,7,7/8-4[0.5172##0.2586],8,8,8,
8/1-5[0.5172##0.2586],1,1,1,1/2,2,2,2,
3/8<5[0.5172##0.2586],3,3,3,4/8v3[0.5172##0.2586],4,4,4,
2/8p4[0.5172##0.2586],2,2,2,1/8,1,1,1,
{4}1h[8:1]/8h[8:1],1h[8:1]/8h[8:1],2h[8:1]/7h[8:1],2h[8:1]/7h[8:1],
3h[8:1]/6h[8:1],3h[8:1]/6h[8:1],4h[8:1]/5h[8:1],4h[8:1]/5h[8:1],
{8}4/5,{16}3,4,{8}3<5[8:1],6,{4}3,{16}6,5,{8}6-1[8:1],
3,6,{4}3,{16}2-4[8:1],1,{8}2,5,5,
{16},,6,5,{8}6>4[8:1],3,{4}6,{16}3,4,{8}3-8[8:1],
6,3,{4}6,{16}7x,8x,7x,8x,7x,8x,7x,8x,
{4}7x<4[4:1],4>1[4:1],1p4[4:1],B2/B3,
1>4[4:1],4p8[4:1],8q5[4:1],B6/B7,
6,7/6,7/8,8/1,
{8}1,1,2,2,3,3,4w8[16:3],4,
{1}Cf,
,E7/E3/B2/B6/B7/B3/Cfh[1:1],
B5/B4,
B2/E1/B7/Ch[1:1],
{4}E7,B5,B4,E3,
1x-7-5-3-1>1[2:3],,,1-3-5-7-1b[4:3],
{1}1x,
{4}5/4h[2:1],{8},,,,6,6,
{4}6<3[2:1],4h[2:1],,,4/5h[2:1],
{8},,,,3,3,
{4}3>6[2:1],5h[2:1],,,5/6h[4:3],
4,3,2h[4:3],
3,4,5,4/6,
6q8[2:1],2bq4b[2:1],{8},,,,,,,,5x/4x,
5x/4x,6x/3x,6x/3x,
7b/2b,,,6h[2:1]/1h[16:3],,,{4}8h[8:1],
{8}7/4,,,6h[2:1]/5h[8:1],,,3h,2h,
7/1,,,8h[2:1]/4h[16:3],,,3h,5h,
{4}6h[4:1]/4h[8:1],5h,{8}6x,6x/5x,5x/4x,4x/3x,
2,4,3-6[8:1],6<1[4:1]*-2[4:1],,,,,6,
5,6-4[8:1],4v1[4:1]*v7[4:1],,,,,8,
5,7p2[8:1],2<7[4:1]*-7[4:1],,,,,5,
2,7-3[8:1],3<4-6[4:1]*>2-8[4:1],,,,,7,
5,6,4,{4}5,{8}4x/3x,4x/3x,
2,4,3,5,,,6x/5x,6x/5x,
7-5[0.5172##0.1293],6,5,4,{4}7/3h[4:1],{8}4,4,
2-8[0.5172##0.1293],3,4,5,{4}2/6h[4:1],{8}7,7,
6,6,4,4,7,7,3,3,
8/2,8,7/3,3,6/4,6,5/3,3,
7-5[8:1],7,1-3[8:1],1,8-4[8:1],8,1-5[8:1],1,
1/7-3[8:1],7,7/2-6[8:1],2,2/8-5[8:1],8,8/4,3,
{1}2h[4:3]/Cfh[1:3],
{2}3h[4:1],4h[4:1],
{1}5<1[2:1],
7<3b[2:1],
{4}4h[8:1]/E6,4h[8:1],3h[8:1]/B6,3h[8:1],
2h[8:1]/B7,2h[8:1],1h[8:1]/E8,1h[8:1],
6h[8:1]/4h[8:1],B6/B4,7h[8:1]/3h[8:1],B8/B2,
1bx,1bx/2x,1bx/7x,1bx/4x,
{8}1x,1x,1x,1x,{16}1x,1x,1x,1x,1x,1x,1x,1x,
{4}1bx/8bx,2bx/7b,{8}6b/3b,3/6,5b/4b,5/4,
{16}6,5,6,5,{8}7xh[8:1],{16}4,5,4,5,{8}3xh[8:1],6,5/4,
{16}3,4,3,4,{8}2xh[8:1],{16}5,4,5,4,{8}6xh[8:1],3,4/5,
{16}6,5,7,5,{8}6xh[8:1],{16}3,4,2,4,{8}3xh[8:1],5,4/5,
{16}6,5,6,7,{8}6xh[8:1],{16}2,1,2-4[8:1],3,{8}2x,6,7,
{16}1x>4[16:3],8,7,6,{4}1/5,{16}8>3[16:3],7,6,5,{4}4/8,
{16}6,4,6,4,{8}6xh[8:1],{16}3,5,3,5,{8}3xh[8:1],7,8,
{16}1x-5[16:3],2,3,4,{4}1/5,{16}8-4[16:3],1,2,3,{4}4/8,
{16}1,8,1,8,{8}1,{16}6,3,{8}6x,5bx/4bx,3x/5x,5x/2x,
{16}3,6,3,6,{8}3xh[8:1],{16}6,4,6,4,{8}6xh[8:1],5,7/4,
{16}5,6,4,5,{8}3xh[8:1],{16}5,4,6,4,{8}6xh[8:1],4,6/4,
{16}6,5,7,5,{8}8xh[8:1],{16}3,4,2,4,{8}1xh[8:1],6,1/7,
{16}7,8,6,8,{8}5xh[8:1],{16}2,1,2-5[8:1],1,{8}2x,7,8,
{16}1x-5[16:3],8,7,6,{4}5/1,{16}8x-4[16:3],7,6,5,{4}4/8,
{16}6,5,6,5,{8}6xh[8:1],{16}4,5,4,5,{8}4xh[8:1],5,5/3,
{16}8-4[16:3],1,2,3,{4}4/8,{16}1-5[16:3],2,3,4,{4}5/1,
5xh[8:1]/4xh[8:1],6xh[8:1]/3xh[8:1],6xh[8:1]/3xh[8:1],7xh[8:1]/2xh[8:1],
{8}7-5[8:1],7,8,1,2-4[8:1],2,{16}1,8,,,{8}7<5[8:1],
1-4[0.2586##0.1293],7,1,8-5[8:1],2>4[8:1],8,2,
8-5[8:1]*-6[8:1],8,{4}8,{8}1-4[8:1]*-3[8:1],1,{4}1,
{8}5,5,6/4,6/4,7/3,3/7,8/2,2/8,
1>3[8:1],1,8,7,6-1[8:1],6,5,4,
3<6[8:1],3,2,1,8-3[8:1],8,7,6,
5,5,3,3,6,6,2,2,
6/5,6/5,7/8,8/7,6x/5x,4x/3x,1x/2x>2b[1:3],7x/8x,
{1}Cf,
C,
C,
{2}Cfh[2:1],{4}B8,B7,
{8}6b,6,6,6,6/4,4,4,4,
4/5,5,5,5,5/3,3,3,3,
5/3,6,5/3,2,5/4,6,5/4,2,
4/6,7,5/3,1,6/4,7/5,6/4,5/3,
4bxh[16:3]/2bxh[16:3],,,6h[16:3]/5h[16:3],,,{4}3h[16:3]/2h[16:3],
{8},6h[16:3]/8h[16:3],,,{4}7b/1b,8b/2b,
{16}6,5,7,4,{8}6xh[8:1],{16}3,4,2,5,{8}3xh[8:1],{16}7,5,8,4,
{8}7xh[8:1],{16}2,4,1,5,{8}2xh[8:1],{16}8q4[16:3],7,6,5,{4}4/8,
{8}5bxh[16:3]/7bxh[16:3],,,3h[16:3]/4h[16:3],,,{4}6h[16:3]/7h[16:3],
{8},3h[16:3]/1h[16:3],,,{4}2b/8b,1b/7b,
{16}1,2,8,3,{8}7xh[8:1],{16}4,5,3,6,{8}2h[8:1],{16}7,8,6,1,
{8}5xh[8:1],{16}3,4,2,5,{8}1xh[8:1],{4}8,8/1b>8b[4:7]*-5b[8:1],
{1}Cf,
{4}2,3,4,5,
{16}6b,5,4,3b/7b,2/6,1/5,4b,3,4,5b/1b,2,3,4b,5,6,5b/1b,
8/4,7/3,{8}6h[4:1]/2h[4:1],{32},,,,,,3b/7b,8b/4b,{2}1bh[2:1]/5bh[4:1],
E
