&title=Stellar Stellar
&artist=星街すいせい
&first=0.24
&des=Kita1kuYo
&lv_5=14
&inote_5=(178)
{8},,,,,,,,,,,,,,,,,,,,
{32},,,,,,,,,,,,5h[2:1]x,,,,,,,,,,,,,,,,4h[2:1]x,,,,,,,,,,,,,,,,3h[2:1]x,,,,,,,,,,,,,,,,2h[16:9]x,,,,,,,,,,,,,,,,,,A8hx[16:33]f,,,,,,,,,,,,,,,,,,,,,,,,,,,,,,,,,,2xp6^5v2[16:12]b,,,,,,,,,,,,,,,,,,,,,,,,,,,,,,,,
{4},8xw4[8:1],
{32}B8f,C5,B3/B4/B5,,,,,,
{8},,4<8[2:1],,3,,3,,3,,2^5[4:1],,1,,8p4[4:1],,1,,
{16}3h,,,4,2,,7h,,,5,6,,73,,82,,
{4}1x,1xw5[8:1],
{32}B1f,C4,B6/B5/B4,,,,,,
{8},,5^2-8[2:1],,7,,7,,7,,
{16}6h,,,8,7,,3h,,,1,2,,6h,,,5,7,,3h,,,4,2,,78,,1,6,2,5,3,4,1h[8:14],,,,E2,,,,B7,,,,E3,,,,A6,,,,E4,,,,D6,,,,D5,,,,3x,5,3,5,3,5,3,5,2x,6,2,6,2,6,2,6,1x,2,3,4,8,7,6,5,2x,3,4,5,6,7,8,1,
{8}2/C8,,5,,5,,5,,5/4>8[4:2],,5,,5,,5,,6/8-4[2:1],,6,,6,,6,,7/5v2^8[2:1],,7,,7,,7,,7-4-6[2:1],,1,,1,,1,,2/6-1-4[2:1],,2,,2,,2,,3^1[6:1],,4,,5^3[6:1],,6,,7-4[8:1],,3,1-5[8:1]*-6[8:1],,1,,37,,,
{16}45,,6,5,6,5,6,,6,,6,5,6,,6,,45,,3,4,3,4,3,,3,5,2,6,1,7,1,,A8,E1,E2,A2,B7,C1,B3,A3,A6,E6,E5,A4,A1,A8,A7,A6,A5,A4,A3,A2,6,7,8,1,2,3,4,5,
{24}6h[16:48]/A2,D2,A1,,,,,,,,,,,,,,,,,,,,,,,,,,,,,,,,,,,,,,,,,,,,,,
{16},2h[16:15],,,,,,,,,,,,,,,,,,4,5,,37,,,5,4,,36,,27,,1-6[8:1]/8,,,,1/7^4[8:1],,,,2h[4:1]/7,,,,,,3,,2-6[8:1],,5,,6-2[8:1],,7,,8<4[6:1],,,,3,,1-4[8:1]*-6[8:1],,,,1,,,,,,,,4-7[8:1],,2,,4,,1q5[8:1],,8,,1,,7-5[8:1],,8-4[8:1],,7^2[8:1],,8,,7-5>2-8[2:1]b,,,,3h[4:1],,,,,,,,,,2,,2,,4,,4,,5,,5,,7-4-1[8:3],,,,2,,1-6-3>4[8:7],,,,3h[4:3],,,,,,,,,,,,,,2-5[8:1],,,,26,,8-4[8:1]*-3[8:1],,,,8,,,,2/6<5[4:3],,,,,,,,,,,,,,,,1,,1v4[8:1],,,,6,,6-1[8:1],,,,2,,,,3-5-7-1[8:5],,,,,,,,,,,,,,,,6,,6-4[8:1],,,,3,,3-1[8:1],,,,8,,,,7<1[8:5],,,,,,,,,,,,,,,,3,,2-5[8:1],,,,6,,7-3[8:1],,,,1p8<2[8:13]b,,,,1h[8:13],,,,,,,,,,,,,,,,,,,,,,,,,,,,,,,,18,,57,,,24,,,68,,13,,,45,,,27,,1x/8x,,,,4>5p4[4:5]b/5,,,,
{32}4b/5b,E4/E6f,B6/B3,B7/B2,E2/E8,,,,,,,,,,,,
{8},,,,,,
{16},,6,,6,,,5,,,4,,3,,,2h[16:9],,,,,E1,E2,E3,E4,E5,E6,E7,E8,1x/8x,,,,4>5p4[4:5]b/5,,,,
{32}4b/5b,E4/E6f,B6/B3,B7/B2,E2/E8,,,,,,,,,,,,
{8},,,6,
{16}6,,,,7,,3h[8:3]x,,D7,D8,D1,D2,D3,D4,D5,D6,D7/2x,,,,28,,1,,2-6[8:1],,1,,8/A2,,,,57,,,,81,,6,,5,,7,,4,3,2,1,78,,7,,1,2,3,4,56,,56,,4,3,2,1,8<4[2:1],,,,4,,3,,2,,1,,8v3[8:1],,,,1/A8f,,,,1,,,,1,,,,1,,,,7,8,7,8,7,8,7,8,6,8,6,8,6,8,6,,
{48}D6/C1h[2:7],A5,D5,A4,D4,,,,,,,,
{8},,,,,,,,,,,,,,5,5,5,5,6h[16:1],6h[16:1],6h[16:1],6h[16:1],7h[16:1],7h[16:1],7h[16:1],7h[16:1],8,,,,
{24}1b-7[8:1]/B5/B6/E6f,2,3,,,,1-5[8:1],,,,,,1/5-1[8:1]b,,,,,,6,,,7<3[6:1],,,,,,1-3-5[6:1]b,,,,,,8<4[6:1],,,,,,1,,,,,,,,,4bx-7[8:1]/3bx,2,1,,,,
{16}3-8-2-5[3:1],,
{16},,5,,,,6,,7^4[8:1],,,,7-3[8:1]/2-8[8:1],,,,7/2-5-3-8[8:3]b,,,,6,,,,,,
{24}7b-1[8:1],6,5,,,,
{16}7-3[8:1],,,,37,,,,2,,1-5[8:1]b/8-6[8:1],,,,18,,,,8-4[8:1]b/1-3[8:1],,,,8/1,,,,6,,6>7[4:2],,,,,,1,,1h[4:1],,,,,,,,2,3,4,5,8,7,6,5,
2-6[8:1]/4,,18,,2b/6b,,,,
{24}8b-2[8:1]/B4/B3/E4f,7,6,,,,8-4[8:1],,,,,,8/4-8[8:1]b,,,,,,3,,,2>6[6:1],,,,,,8-6-4[6:1]b,,,,,,1>5[6:1],,,,,,8,,,,,,,,,5bx-2[8:1]/6bx,7,8,,,,
{16}6-1-7-4[3:1],,
{16},,4,,,,3,,2<6[4:1],,,,6>1[4:1]b,,,,1<4[4:1],,,,4<2qq5[8:13]b,,,,7bh[8:13]x,,,,,,,,,,,,,,,,,,,,,,,,,,,,,,8-6-4[4:1],,,1x,,,,,2<6[4:1],,,3x,,,,,4-2-8[4:1],,,5x,,,,,6>2[4:1],,,7x,,,,,8pp4>5[8:13]b,,,2h[16:17]x,,
,,,,,,,,,,,,,,,,,,,,,,,,,,,1-3-5[4:1]b,,8x,,,,,,7>3[4:1]b,,6x,,,,,,5-7-1[4:1]b,,4x,,,,,,3<7[4:1]b,,2x,,,,,,1-5[16:32],,,A8h[16:33]f,,,,,,,,,,,,,,,,,,,,,,,,,,,,,,,,,,,,,8xw4[8:1],
{32},,,,,,B8f,C5,B3/B4/B5,,,,,,,,,,,,,,
{8}4-6[8:1],,4^1[8:1],,4v7[8:1],,,,
{16}2h[16:3],,,4h[16:3],,,8,,6h[16:3],,,4h[16:3],,,7,,38,,6,5,7,5,6,,3,4,2,4,
{32}3-7[8:1],,,,,,,,1x,,,,,,,,1xw5[8:1],
{32},,,,,,,B1f,C4,B6/B5/B4,,,,,,,,,,,,,,
{16}7,5,7,5,7-3[8:1],5,7,5,7-5[8:1],,,,1,,,,3,4,2,4,3,,5,4,6,4,5,,2,1,2,3,2,,7,8,7,8,6,8,5,8,4,8,3,8,2,8,1v6[8:1],,,,A1f/8,,,,7,7,5,6,4,,3,3,5,4,6,,7,7,1,1,8,,3,3,1,1,2,,1,8,7x,5x,4,3,8,7,6x,4x,3,2,8,7,6x,5x,41,2,3,4,5x/8,7,6,5x,41,2,3x,4,51,6x,7,8,
{8}5/1h[16:28]b,,B2/E3,,,,B8/E1,,7-5[12:1],,,,4-8[8:1],,
,,
{16}1b,2,3,4,2,3,4,5,7b,6,5,4,8,7,6,5,4/3b,2,1,8,7,6,5,4,3/8b,1,2,3,4bx,5/3,6/2,7/1,8h[4:1]x,,,,
{24},,,,,
{32}C1,,B4,,A4h[64:57]f,,,,,,,,,,,,,,,,,,,,,,,,,,,,
{64},2bp6^5v2[24:121]b,
