&title=Zombies on Your Lawn
&artist=Plants Vs. Zombies (Original Video Game Soundtrack)
&first=0.03
&des=Yoru MK
&lv_5=12+
&des_5=Yoru MK
&inote_5=
(105){4},{8},,,,5h[4:3]/3>1-4[2:1],C,
{4}3,{8},,,,4h[4:3]/6<8-5[2:1],C,
{4}6,{8},,,,8h[2:1]/1v3>2-4[4:1],B2,
{4}1,{8},,,,1h[2:1]/8v6<7-5[4:1],B7,
{2}8,{8}5/4h[8:1],5,4-8[8:1],4qq3[4:1]*pp5[4:1],
{2}4,{4}1b/8b,{8}7/1>2-4[4:1],7<6-4[4:1],
1,7,,,{4}3/6,{8}3>2-5[4:1]/6<7-4[4:1],5/4,
,,,,{4}4b/5b,{8}1p6[4:1]/8q3[4:1],A7/A2,
{2}8/1,{4}5b/4b,5,
4h[8:1]/5h[8:1],{8}4w8[16:1],3/5,4b,6/2,3-6[16:1]/7-2[8:1],2/6,
{4}3/7,{8}5/1,4/8,7/3,2pp4[8:1]/7<4[8:1],B8/B1,7/2,
,6/3h[8:1],5h[8:1],3,6/3,2/7,{4}1-3[8:1]/8-4[8:1],
1-5[8:1]/8-6[8:1],8b/1b,{8}4/5,3h[8:1]/6h[8:1],{16},,1,2,
3,4,5,6,{4}7,{8}1>4[8:1]/8<5[8:1],2/7,{4}1-5[8:1]/8-4[8:1],
8/1,{8}5/4,6/3,7/2,8h[8:3]/1>4[8:1],2,1,
,,4-6[8:1],4-2[8:1],4-8[8:1],4,4,7h[8:1],
{4}4-6-3-7-2-8[2:1],{16},,,,,,,,7,6,5,4,
3,2,1,8,{8}7,1/2>5[8:1],3/8,1/2,8<5[8:1],7,
8/2>5[8:1],3,2,6,3,5,4/7<4[8:1],6,
7/1>4[8:1],2,1/8,6,4w8[8:1],3/5,{4}4,
{8}4,7/1h[8:1],4,1-3<4[8:1],4-6<7[8:1],7>1[8:1],,,{4}6h[8:1],
{8}3h[8:1],5,{4}4b/5b,{8}7/1>2-4qq3[4:1],8,
7<6-4pp5[4:1],8,{4}7,{8}3,6,6/4-2[8:1],3/5-7[8:1],
4,5,1,7qq6[8:1]/2pp3[8:1],1/8,2/7,,4/5-8[8:1],
8>4[8:1],4<8[8:1],{4}B2/B3/E3,{8}2h[8:1],1,7/1,2/8,
1>4[4:1]/7<4[4:1],2bx/8bx,{4}1bx/7bx,{8},3h[8:1]/5h[2:1],,,,,4/5,
4,4/7,4,{4}4p8[8:1]/8p4[8:1],
4<8[4:1]/8>4[4:1],8/4,{8},7h[8:1]/3>8[8:1],4,3,
,7h[8:1]/2h[8:1],,1/8,7/2,6-3[8:1]/3-6[8:1],2/7,3-1<8[8:1]/6-8>1[8:1],
,,,2/6,7/3,6/2,{4}3h[4:1]/7h[4:1],
{8},4,5,4,6/4,5/3,{4}6/4-1<8-5[4:1],
{8}4b/6h[4:1],,,3/5,4>1[8:1]/5<8[8:1],6/3,{4}5b/4b,
{8}8/1,2/7,{4}6h[8:1]/3h[8:1],{8},3bx/7bx,6bx/2bx,8bx/4bx,
5bx/1bx,4bx-1>2-5[4:1]/8bx-5<6-1[4:1],{4}8bx/4bx,{8},,1/2>5[8:1],3,
2/1<6[8:1],8,1,2h[8:3],1<6[8:1],8,{4}1b,
{8}8/B1,7/E3,{4}6/B4,{8}8/1>4[8:1],2,1/8<5[8:1],7,
{4}8/1,{8}8-4[8:1]/4-2[8:1],4pp6[8:1],{16}4,,,,,1/A5,2/A6,3/A7,
{8}4/A8,4-1[16:1]/8-5[16:1],7/3,4/8,{16}2,4,{8}3>8[8:1],4/5,3/4<7[8:1],
5,5/4-2[8:1],3,4/5-7[8:1],6,4/5>2[8:1],4,5/6<1[8:1],
5,5/6,,2/5<1[8:1],1>5[8:1],1/5-8<6[4:1],3,1,
2,3,5/4,6/3,2/7h[8:1],{16}2,3,4,5,6,7,
8,1,{8}2/6,5/3h[8:1],5,{16}4h[8:1],6,,,{8}5,{16}2,4,
{8}3,5/3h[8:1],{16}7,5,{8}6,3h[16:1],7,{16}1,8,2,7,
3,6,1,7,2,6,{8}3,3/5<8[8:1],4/6,{4}5,
{8}1/6<1[8:1],7,6/4>1[8:1],3,4/5,7,3/5-8[8:1],7/5-3[8:1],
5/2,5,1w5[8:1],2/8,{4}1b,{16}4h[8:1],6,{8}6,
{16}5h[8:1],3,{8}3,4/2,3,3/6,{16}5h[8:1],4h[16:1],,,{8}5v7[8:1],
4v2[8:1],5,4,{16}8,7,6h[4:1],1,2,3h[16:1],,,{8}5/4,
6/4,5/3,4/7,5/2,3/8,6/1,8q5[8:1],1p4[8:1],
8,1,,C,{4}4b/5b,2h[8:1]/7>8p1>2[4:5],
3h[8:1],4h[8:1],{8}C,5h[8:1],,6h[8:1],
,7h[8:1],,7/2,6/2qq7[4:1],3/5h[8:1],{4}2,
5h[8:1],{8}5/4>1[4:1],5,4/1<6[4:1],1,6-3[4:1],6,
{16},,,,1,2,3,4,5,6,{8}7,{16}E3,B2,B1,E1,
,E1,B8,B7,{8}E7,5-1[8:1],1<6[8:1],6-2[8:1],{4}2>5[8:1],
{8}4,1,{16}4,5h[16:1],,6h[16:1]/3h[16:1],,7h[16:1]/2h[16:1],,1h[16:13],{4}8bv7-5>4[2:1],
{8},,,,,3/4,7b,5/4,
2b,6/5,{4}1b/2b,{8}2-4[8:1],1,2/8-6[8:1],1,
8/1-4[8:1],2,1/7-5[8:1],6,5-1-3[4:1],3,3,4,
{16}4,5,6,7,8,1,2,3,{8}4,5/4-2[8:1],3,4/5-7[8:1],
6,5/4-8[8:1],3,4/5-1[8:1],6,5/3,{16},,2,3,
4,5,6,7,{8}8,1b/8b,8<5[8:1]/1>4[8:1],2/7,{4}1-5[8:1]/8-4[8:1],
1/8,{8}3-1[8:1]/6-8[8:1],5/4,{4}6/3,{8}B7/E7,B2/E3,
1/8,7h[8:1],4,2h[8:1]/5<1[4:1],4,1>5[4:1],C,5<1[4:1],
C,1s5[4:1],C,2,3,4h[8:1],{16}5,6,7,8,
{8}1,2/7,1b/8b,B7f/B6f/B2f/B3f,{4}5b/4b,{16}3,4,3,4,
3,4,5,6,7,8,{8}1,{4}7b/2b,{16}6,5,6,5,
6,5,4,3,2,1,8,7,6,5,{8}4,5h[4:1],4,
{16},,5/4,B1,,E3,,B4,,,,,{8}7h[16:1],2h[16:1],
{16}8h[16:1],1h[16:1],,,{4}8b/1b,
E
