&title=Looma
&artist=Empty old City
&first=0
&des=Dororo
&clock_count=4
&lv_5=13+
&des_5=Dororo
&inote_5=(140)
{1},
{16}E1,,,,,,,,C/1h[2:1],,,,,,,,
{16}E2,,,,,,,,C/2h[2:1],,,,,,,,
{16}E3,,,,,,,,C/3h[2:1],,,,,,,,
{16}E4,,,,,,,,B6,,,,B2,,,,
{16}E1,,,,,,,,C/8h[2:1],,,,,,,,
{16}E8,,,,,,,,C/7h[2:1],,,,,,,,
{16}E7,,,,,,,,C/6h[2:1],,,,,,,,
{16}E6,,,,,,,,Ch[8:1]/B3/B7,,,,,,,,
{16}3,,4,,5,,6,,3h[8:3],,4,,5,,6,,
{16}3,,4,,5,,6,,4h[8:3],,3,,5,,6,,
{16}3,,4,,5,,6,,5h[8:3],,3,,4qq7[2:1],,6,,
{16},,,,,,8,,8,,,,17,,,,
{16}E7,,B6,,B5,,E5h[8:3],,1h[2:1],,,,,,,,
{16}E3,,B3,,B4,,E5h[8:3]/8,,,,8h[8:3],,,,,,
{16}E7,,B6,,B5,,E5h[8:3]/1,,1h[2:1],,,,,,D2,D1,
{16}D8,,,,,,,,Ch[2:1],,,,,,,,
{16}D4,,,,,,,,,,,,5w1[2:1],,,,
{16},,,,,,,,,,,,,,,{32}3,4,
{16}3-7-1[4:1],,,,,,4,,4V62[4:1],,,,1h[8:1],,,3h[8:1],
{16},,5h[8:1],,7x-1[8:1]*-3[8:1],1h[8:1],,,,,,,4-8[8:1]/8-4[8:1],,,,
{16}4pp5[4:1],,,,,,3,,3qq8[2:1],,,,1,,,,
{16}4^7[8:1],,,,4pp3[3:1],,,,7,,,,,,,,
{16}6-2-8[4:1]/2,,,,,,5,,5h[4:1],,,,7,5,6,5,
{16}8,4,5,4,1-4[8:1],3,4-1[8:1],3,,,,,,,7,,
{64}7xh[2:3],D1,A1,D2,{16},,,B1,,,,C,,,,B5,,,,
{16}A5h[2:1],,,,,,,,,,,,,,,,
{16}4>6[4:7],,,,,,,,,,,,,,,,
{16}3,,,,,,,,4,,,,,,,,
{16}5<3[4:7],,,,,,,,,,,,,,,,
{16},,,,,,,,4,,,,,,,,
{16}4>6[4:7],,,,,,,,,,,,,,,,
{16}3,,,,,,,,2,,,,,,,,
{16}1pp7[2:3],,,,,,,,,,,,,,,,
{16},,,,,,,,{32}B5,E5,{16},,,,,,,
{16}3/5h[2:1],,,,,,,,7v6-4[3:1],,,,8h[16:1],,,,
{16},,,,3-1[8:1],,,,3/6v7[8:1]*-4[8:1],,,,,,,,
{16}6/4h[2:1],,,,,,,,2v3-5[3:1],,,,1h[16:1],,,,
{16},,,,8-3[8:1],,,,8z4b[8:1]/2,,,,{32}B8,C,{16}B4,,,
{16}3x,4x,3x,4x,2x,4,2,4,1x,4,1,4,8x,4,8,4,
{16}7x,4,7,4,6x,4,6,4,{32}5x,6,7,8,1,2,3,4,5xp4[1:1],6,7,8,1,2,3,4,
{48}E8,B8,B1,{16}E2,,,,,,,,,,,,,,,
{16}B6h[16:1]/E7h[16:1]/B7h[16:1],,,,B2/E3/B3,,,,1xV72[8:1]/8xV27[8:1],,,,,,,,
{24}3b<7[8:1],4x,3x,{16}4xh[8:3],,,,,,B8f,,,,{32}1x/7x,2x/6x,{16},,,
{12}3,4,5,4,5,6,{16}5-8[8:1]*-7[8:1],,,,5,,,,
{24}1b<5[8:1],6x,1x,{16}6xh[8:3],,,,,,E5f,,,,1,7,2,6,
{12}8x,5x,3x,{16}8w4[8:1],,,,8,,,,7b/1b,,,,
{16}2-6[8:1],,,,2qq6[2:1],,,,5,,5,,4,,4,,
{16}3-7[8:1],,,,3qq7b[2:1],,,,6,,6,,5,,5,,
{16}4<8[4:1],,,,8>4[4:1],,,,4,,,,8,,,,
{16}5V74[4:1],,,,4-8-3[4:1],,1,,3w7[8:1],,2,,,,,,
{24}6b>2[8:1],5x,6x,{16}5xh[8:3],,,,,,B1f,,,,8x/7x,6,5,4,
{16}1x,2,3,4,8x,7,6,5,4-1[8:1]/2-4[8:1],,,,42,,,,
{24}8b>4[8:1],3x,8x,{16}3xh[8:3],,,,,,E5f,,,,{32}6,7,8,1,2,3,4,5,
{16}1-4[8:1]*-6[8:1],,,,1w5[8:1],,,,1,,,,2b/8b,,,,
{16}7-3[8:1],,,,7pp3[2:1],,,,4,,4,,5,,5,,
{16}6-2[8:1],,,,6pp2b[2:1],,,,3,,3,,4,,4,,
{16}5>1[4:1],,,,1<5[4:1],,,,5,,,,1-5-7-4[8:3],,,,
{16}7-3[8:1]*-4[8:1],,,,,,,,2-5[8:1]/6,,2/6-2b[8:1],,,,,,
{16}4b>5[2:3],,,,E6,,,,E7,,,,E8,,,,
{16}E1,,,,E2,,,,E3,,,,E4,,,,
{16}E5h[1:1],,,,Ch[4:3],,,,E1h[2:1],,,,,,,,
{16},,,1x,1x,,28,,3-6[8:1]/7-4[8:1],,,,37,,,,
{16}5x<4b[2:3],,,,E4,,,,E3,,,,E2,,,,
{16}E1,,,,E8,,,,E7,,,,E6,,,,
{16}5x/4xh[2:1],,,,2,,,,8h[2:1],,,,,,,,
{16}B3h[16:1]/E3h[16:1]/B2h[16:1],,,,B7/E7/B6,,,,3xV52[8:1]/6xv5-2[8:1],,,,,,,,
{32}1bpp5[8:3]/2x,8x,7x,6x,{16}5xpp6b[4:1],,,,,,C/B7f/A7,,,,{32}8x/2x,7x/3x,{16},,,
{12}6,5,4,5,4,3,{16}4v1[8:1]*-2[8:1],,,,4,,,,
{32}2x/8bpp3[8:3],7x,6x,5x,{16}4x-6v7b[4:1],,,,,,B7f/C/B3,,,,8,2,7,3,
{12}1x,4x,6x,{16}1p4[8:1]*q6[8:1],,,,1,,,,2b/8b,,,,
{16}7q3[8:1],,,,3p6[8:1],,,,5-8[8:1],,5,,4-1[8:1],,4,,
{16}6q2b[8:1],,,,2p5b[8:1],,,,4^7[8:1],,4,,3^8[8:1],,3,,
{16}5pp7[8:1],,,,3qq1[8:1],,,,8-4[8:1],,6,,4w8b[8:1],,,,
{16},,,,3^1[8:1],,1pp3[8:1]/6pp8[8:1],,8^6[8:1],,,,,,,,
{32}8bqq4[8:3]/7x,1x,2x,3x,{16}4xqq3b[4:1],,,,,,C/B2f/A2,,,,1x/2x,3,4,5,
{16}8x,7,6,5,1x,2,3,4,5v8[8:1]/7-5[8:1],,,,57,,,,
{32}7x/1bqq6[8:3],2x,3x,4x,{16}5x-3v2b[4:1],,,,,,B2f/C/B6,,,,{24}1,7,1,7,1,7s3[24:4],
{16}1v4[8:1],,,,,,,,2^8[8:1]/5^8[8:1],,,,2b/5b,,,,
{16}2p6[8:1],,,,6q3[8:1],,,,4-1[8:1],,4,,5-8[8:1],,5,,
{16}3p7b[8:1],,,,7q4b[8:1],,,,5^2[8:1],,5,,6^1[8:1],,6,,
{16}4qq2[8:1],,,,6pp8[8:1],,,,1-5[8:1],,3,,5s1^8z4b[1:1],,,,
{16}1xh[2:1],,,,,,,,,,,,,,,,
{16},,,E5h[16:6]/D5h[16:6],,,,,,,,,,,,,
{16},,,,,,,,,,,,,,,,
