&title=disintegration
&artist=ひゆ~ぶ
&first=1.854
&lv_5=13.7
&des_5=Statue
&inote_5=
(135){4}5h[2:7],{8},,,,,,,,,,,,,B2,
{1}B3,
{2}B4,E3,
{8}5,3h[8:1],1,2h[8:1],8,1h[8:1],{4}8,
{8}1,7h[8:1],5,6h[8:1],4,5h[8:1],{4}4,
{8}5,3h[8:1],1,2h[8:1],8,1h[8:1],{4}8,
{8}1,7h[8:1],5,6h[8:1],4,5h[8:1],{4}4,
{8}4-2<1[8:1],{16}7x,6x,{8}5x,5-7>8[8:1],{16}1x,2x,{8}3x,3,3,
8-6>5[8:1],{16}3x,2x,{8}1x,1-3<4[8:1],{16}5x,6x,{8}7x,7,7,
4-2<1[8:1],{16}7x,6x,{8}5x,5-7>8[8:1],{16}1x,2x,{8}3x,3,3,
8-6>5[8:1],{16}3x,2x,{8}1x,1-3<4[8:1],{16}5x,6x,{8}7x,7,6,
5/4,{16}3,4,{8}2,1/8,{16}7,5,{8}6,6/5,4/5,
3/4,{16}3,1,{8}2,1/8,{16}7,5,{8}6,5/6,5/6,
{16}6,5,6,7,6,8,5,1,4,2,3,2,1,3,8,4,
{8},{32}8x,7x,{16}6xh[4:1],,{32}4x,3x,{8}2xh[16:1],{16}6,2,4,8,{4},Cf/B7/A7/B3/A3/B1/A1/B5/A5,
{8}7-5[12:1]/2-4[12:1],1/8,{4}2,{24}2,1,,4,7,,4h[8:1],
{6},{24}7,{12}4,{24}6,5,{12},{24}7,4,,8,1,,6,5,,1,2,,{8}6,
{24}2-6[12:1],,1-5[12:1],{8},{24}2-4[12:1],,1-7[12:1],{8},{24}2,,1,{4},{8}6/2,
{24}8-4[12:1],,7-3[12:1],{8},{24}8-2[12:1],,7,{8},{24}8,,7,{8},1,
1-4[8:1],4>5[8:3],{4}1,{2}6h[2:1],
{32}B6,B7,B8,B1,B2,B3,{16}B4,{4},{24}7,4,,8,1,,6>2[4:1],5,,1,2,,{8}6h[4:1],
{4},{8}8b,{12}1x,3x,2x,8x,6x,7x,
1h[3:1],{24}8-4[3:1],7,{6}6,{12},,,,,,,,,,,{8}2-4[12:1]/7-5[12:1],
8/1,{4}7,{24}7,8,,5,2,,5h[8:1],
{6},{24}2,{12}5,{24}3,4,{12},{24}2,5,,1,8,,3,4,,8,7,,{8}3,
{24}7-3[12:1],,8-4[12:1],{8},{24}7-5[12:1],,8-2[12:1],{8},{24}7,,8,{4},{8}3/7,
{24}2-6[12:1],,1-5[12:1],{8},{24}2-4[12:1],,1,{8},{24}2,,1,{8},4,
8-5[8:1],5<4[8:3],{4}8,{2}3h[2:1],
{32}B3,B2,B1,B8,B7,B6,{16}B5,{4},{24}2,5,,1,8,,3<2[3:1],4,,8,7,{12},,,,,{24}8,
7,6,{12}5,{24}2,3,4,5,,7,6,5,{12}4,
{8}2xq5[2:1],7x,{4}2xh[2:1],{2},{1}2-6[2:1],
2s6[2:1],
2-8-4-6[2:1],
{2}2-8z4-6[2:1],7h[2:1],
{4}Cf,{8}3/4,6/5,7v5[8:1]/8-5b[8:1],1v4[8:1]/2-4b[8:1],{2},{8}4/5,
2/7,4>1b[8:1]/5<8[8:1],1z5[8:1]/8-4b[8:1],{2},{8}5/4,
2/4,1v7b[8:1]/8-5[8:1],7-5[8:1]/5-3b[8:1],{2},{8}6/5,
5/4,4/3,4/6,3/5,6/2,
5-7>8[8:1],{16}2x,3x,{8}4x,4-2<1[8:1],{16}8x,7x,{8}6x,6,6,
1-3<4[8:1],{16}6x,7x,{8}8x,8-6>5[8:1],{16}4x,3x,{8}2x,2,2,
5-7>8[8:1],{16}2x,3x,{8}4x,4-2<1[8:1],{16}8x,7x,{8}6x,6,6,
1-3<4[8:1],{16}6x,7x,{8}8x,8-6>5[8:1],{16}4x,3x,{8}2x,2,3,
4/5,{16}6,5,{8}7,8/1,{16}2,4,{8}3,3/4,5/4,
6/5,{16}6,8,{8}7,8/1,{16}2,4,{8}3,4/3,3/4,
{16}3,4,3,2,3,1,4,8,5,7,6,7,8,6,1,5,
{8},{32}1x,2x,{16}3xh[4:1],,{32}5x,6x,{8}7xh[16:1],{16}3,7,5,1,{4},{32}1/8,
2/7,3/6,4h[32:17]/5h[32:9],{8},,,{4}5h[32:15],4h[32:7],
{32}4/5,3/6,2/7,8h[32:25]/1h[32:9],{8},,,{2}1h[8:3],
{32}1-5[8:1],2,3,4h[32:5],{8},1b,4-2[8:1],7-5[8:1],4,7,1-3[8:1],
4-8[8:1],1-5[8:1],4,1-3[8:1],6-8[8:1],1,{4}6,
{32}8/1,7/2,6/3,5h[32:17]/4h[32:9],{8},,,{4}4h[32:15],5h[32:7],
{32}5/4,6/3,7/2,1h[32:25]/8h[32:9],{8},,,{2}8h[8:3],
{32}8-4[8:1],7,6,5h[32:5],{8},8b,5-7[8:1],2-4[8:1],5,2,8-6[8:1],
5-1[8:1],8-4[8:1],5,8-6[8:1],3-1[8:1],8,{4}3,
{32}1/8,2/7,3/6,4h[8:7]/5h[8:7],{8},,,,,,,{32}4/5,
3/6,2/7,8h[32:21]/1h[32:21],{8},,,,,,,{32}1,
2,3,4,{8}6x-4-8[32:5],7,1-3[8:1],3,1-5[8:1],6-8[8:1],1,
6,3-5[8:1],5-1[8:1],6-8[8:1],8,6,{4}2,
{32}8/1,2/7,6/3,5h[8:7]/4h[8:7],{8},,,,,,,{32}5/4,
6/3,7/2,1h[32:21]/8h[32:21],{8},,,,,,,{32}8,
7,6,5,{8}3x-5-1[32:5],2,8-6[8:1],6,8-4[8:1],3-1[8:1],8,
3,6-4[8:1],4-8[8:1],3-1[8:1],1,3,{4}7,
{24}E3,B3,,B8,B7,,B3,B4,,B7,E7,,,,,,,,5,6,,4,7,,4h[8:1],
{6},{24}7,{12}4,{24}6,5,{12},{24}7,4,,8,1,,6,5,,1,2,,{1}6h[1:1],
{16},,,,,,,,,B8/E2,,B4,{8}B6,B1/B8,
{16}B3,B5,{8},5,{16}4<3[8:3],6h[16:5],{2},{32}A8,
D8,A7,D7,A6,D6,{16}A5,{4},{24}3,6,,4,5,,8<5[4:1],1,,3,6,,{8}1h[8:3],
{4},{8}7b,{12}2x,4x,3x,7x,5x,6x,
4xh[3:1],{24}8w4[12:11],7,{6}6,
E
