&title=rAwTell Owk
&artist=埴安神袿姫
&first=-0.165
&des=橘雪莉
&des_5=橘雪莉
&lv_5=13
&inote_5=(102){4},,5,4,
4h[4:1],5bx,5h[4:1],4bx,
{8}4bx/3h[4:1],B5,{4}6bx,{8}5bx/6h[4:1],B4,{4}3bx,
{8}3bx/2h[4:1],C,{4}7bx,{8}6bx/7h[4:1],C,{4}2bx,
{8}8bx/1h[4:1],C,{4}4bx,{8}1bx/8h[4:1],C,{4}5bx,
6h[4:1]/4-2[16:1],4bx,3h[4:1]/5-7[16:1],5bx,
8w4[12:1],8bx,1w5[12:1],1bx,
{8}8-4[16:1],E8/E1,{4}8bx,{8}1-5[16:1],E1/E2,{4}1bx<8-2-7-3-6-4<5>4-6-3-7-2-8>1b[1:1],
,,,,5h[4:1],
1h[4:1],{8}5,5/1,6/2,7/3,
8/4,{16}8-6[16:1],4,{8}4,8b,4,{16}8-2[16:1],4,{8}4h[8:1],8b,
4h[8:1],{16}8,8,{8}4/8-6[16:1],4,4/8b,{16}4,4,{32}B4,B3,{16}B2,{32}B8,B7,{16}B6,
{8}1h[8:1],{16}5,5,{8}5/1-4[16:1],5,1b-6[16:1],{16}5,5,{8}1bV72[8:1],{16}5,5,
{8}1b,{16}5,5,{8}1-3[16:1],1/5h[8:1],1b,{16}5,5,{32}B1,B2,{16}B3,{32}B5,B6,{16}B7,
{8}4,{16}8,4,{8}4h[8:1]/8<5[16:1],8,4/8b>3[16:1],{16}4,4,{8}8b-5[16:1],4,
4/8b-3[16:1],{16}4,4,{8}8b,4,8/4,{16}4,4,{32}8b,7,{16}6,{32}3b,2,{16}1,
{8}5,{16}5,5,{8}5/1v7[16:1],1,5/1bv3[16:1],{16}5,5,{8}1b/5v7[16:1],5,
5bv3[16:1],{16}1,1,{8}5b,1,1/5,{16}5,5,{32}1b,2,{16}3,{32}6b,7,{16}8,
{8}4h[8:1],{16}8-5[16:1],8,{8}4-2[16:1],8b,4b,{16}5/1,6,{8}1/7,{16}7/1,2,
{8}3/7,{16}8/4,7,{8}6/2>4[16:1],1/5,2b/6,{16}8,8,{32}2,1,{16}2,{32}7,8,{16}7,
{8}1h[8:1],{16}8,1,{8}8h[8:1]/1-6[16:1],2,3/1b,{16}3,3,{8}4/5-2[16:1],{16}5/6,6,
{8}5b-1[16:1],{16}7,7,{8}5b/7-3[16:1],8,1,{16}2,2,{32}3b,4,{16}5,{32}4b,5,{16}6,
,,,,{4}Ch[16:1],,Ch[16:1],
E
