&title=[星]StargazeR
&artist=骨盤P
&first=0
&des=--
&genre=宴会場
&cabinet=DX
&clock_count=4
&lv_7=13?
&des_7=RinA
&inote_7=
(195){4},,,,,,,,,,{2}2$/7$,
{8}5$/4$,{4},{8}7$,{4},4$/8-5[2:1],
{1},{8}4$/2$,
{4},{8}8$,{4},2$/5>1[2:1],
{1},{8}4$/7$,
{4},{8}2$,{4},4$/5<1[2:1]*q1[2:1],
{1},{2}7$/2$,
{4}7$/2$,3$/6$,
,6$/3$,{2}4$/5$,
{8}2$/3$,{4},{8}7$,{4},2$/4>6[2:1],
{1},{8}5$/4$,
{4},{8}2$,{4},4$/5-8[2:1],
{1},{8}8$/3$,
{4},{8}5$,{4},3$/4>7[2:1]*p7[2:1],
{1},{2}5$/4$,
{4}5$/4$,3$/6$,
,6$/3$,{2}2<5[4:7]/7>4[4:7],
{1},,{8}1$b,
1-5[8:1],,6-1[8:1],,2$,{4}3$,
{8}8$,8-4[8:1],,3-8[8:1],,7$,{4}6$,
{8}1$,1-5[8:1],,6-1[8:1],,2$,{4}3$,
{8}8$/4$,4-1[8:1]/8-5[8:1],{2},{4}1$/7$,
{8}7$,7-4[8:1],,3>8[8:1],,7$,{4}6$,
{8}2$,2-5[8:1],,6<1[8:1],,2$,{4}3$,
{8}7$,7-4[8:1],,3>8[8:1],,7$,{4}6$,
{8}1$/5$,1>4[8:1]/5<8[8:1],{2},{4}3$/5$,
{8}1$,1-5[8:1],,6V82[8:1],,3$,{4}4$,
{8}8$,8-4[8:1],,3V17[8:1],,6$,{4}5$,
{8}1$,1-5[8:1],,6V82[8:1],,3$,{4}4$,
{8}8$/4$,4>1[8:1]/8<5[8:1],{2},{4}2$/8$,
{8}2$,2>5[8:1],,6V82[8:1],,3$,{4}4$,
{8}7$,7<4[8:1],,3V17[8:1],,6$,{4}5$,
{8}5>1[8:3],{4},{8}1<5[8:3],{4},5p1[4:1],
1p5[4:1],{2},{4}5-8[4:1],
2$,2$,,1$/7$,
4$,{8}2$/8$,2$/8-5[8:1],,4$,,3$/4$,
{2},{4}3$/4$,2$/8$,
5$,{8}1$/7$,7$/1-4[8:1],,5$,,8$/7$,
{2},{4}8$/7$,5$/6$,
2$,{8}1$/7$,1$/7-2[8:1],,4$,,1$,
{2},{4}1$/2-7[4:1],7-3[4:1],
3-8[4:1],8-5[4:1],5-2[4:1],2$,
{2}8$,{4}1$/8$,6$/4$,
2$,7$,1$,8-5[4:1],
{2}8$/4$,{4}5$,2$/8$,
6$,3$,5$,4-1[4:1],
{2}4$/8$,{8}3$,{4},{8}3$/6<1[8:1],
,2$,{4},8>4[4:1],4<8[4:1],
{8}8$,{4},{8}1-4[8:1],{2}1$,
{4}6$/5$,6$/5$,8$/7$,8$/7$,
{8}3$,4$,3$,4$,{4}3$,8$/3$,
{8}6$,5$,6$,5$,{4}6$,1$/6$,
6$/5-2[8:1],6$,6$/5-2[8:1],6$,
7$/5-1[8:1],7$,7$/5-1[8:1],7$,
{8}7$,8$,7$,8$,{4}7$,4$/7$,
{8}2$,1$,2$,1$,{4}2$,5$/2$,
3$/4-7[8:1],3$,3$/4-7[8:1],3$,
2$/4-8[8:1],2$,2$/4-8[8:1],2$,
{8}3$,4$,2$,4$,{4}3$,8$/3$,
{8}6$,5$,7$,5$,{4}6$,1$/6$,
3$/4<7[8:1],1$,3$/4<7[8:1],1$,
3$/4q8[8:1],1$,3$/4q8[8:1],1$,
{8}2$,1$,3$,1$,{4}2$,5$/2$,
{8}7$,8$,6$,8$,{4}7$,4$/7$,
6$/5>2[8:1],8$,6$/5>2[8:1],8$,
6$/5p1[8:1],8$,6$/5p1[8:1],8$,
2-5[8:1],7-4[8:1],2>5[8:1],7<4[8:1],
1q6[8:1],8p3[8:1],1$,2$/7$,
{8}3$,4$,3$,2$b/5$b,{4},{8}6$,5$,
6$,4$b/7$b,,8$,1$,2$,{4}3>6[4:1],
{2}3$b/5$,{4}4$/5$,{8}2>5[8:1],1$,
2$,{4},{8}6<1[8:1],{4},2$,
3<6[4:1],6<1[4:1],1>4[4:1],{8}4p8[4:1]*q8[4:1],4$,
,,,,,3$,4$,5$,
{4}6>3[8:1],3$,{8}2$,7$,,4-2[8:1]/5-7[8:1],
,4$/5$,,1$/8$,,2$/7$,{4},4$/5$,
{8}3$,5$/3$,,6$,{4}6$/3$,
{8}1$/5$,{4},{8}7$/3$,{4},4-1[8:1]/5-8[8:1],
{2}4$b/5$b,{4}2$/7$,{8}3-8[8:1],4$,
3$,{4},{8}6-1[8:1],{4},2$,
1-7[4:1],7-5[4:1],5>2[4:1],{8}2-7[4:1],2$,
{2},{4}7$,7$/5$,
5$/3$,1$/3$,7<4[8:1],1$,
2>5[8:1],8$,6$,1$/6$,
{2}8$/3$,{4}3$/2-7[4:1],7-4[4:1],
4-8[4:1],8-5[4:1],5-2[4:1],2<2[4:7],
{1}8$b,
,{4}3-8[8:1],
5$,{8}6$,6$,{4}5$/7$,
6-1[8:1],4$,{8}3$,3$,{4}2$/4$,
3>8[8:1],5$,{8}6$,6$,{4}5$/7$,
6<1[8:1],4$,{8}3$,3$,{4}2$/4$,
3>8[8:1],5$,{8}6$,6$,{4}5$/7$,
6<1[8:1],4$,{8}3$,3$,{4}2$/4$,
{8}8$b,1$/7$,,1-5[8:1],8$,1$,,5-1[8:1],
4$,5$,,1-5[8:1],8$,1$,,5-1[8:1],
4$,5$,,2-6[8:1],1$,2$,,6-2[8:1],
5$,6$,,3$/8$,{16}3$/8$,{8},{16}5$/6$,{8},1$/8$,
2$,1$/3$,,8-4[8:1],1$,8$,,4-8[8:1],
5$,4$,,8-4[8:1],1$,8$,,4-8[8:1],
5$,4$,,7-3[8:1],8$,7$,,3-7[8:1],
4$,3$,,1$/6$,{16}1$/6$,{8},{16}3$/4$,{8},1$/8$,
{1}8$b/1b>8[4:15],
E
