&title=Linkage
&artist=Technoplanet
&first=0
&des=御鴉
&clock_count=4
&lv_5=13+
&inote_5=(104.67)
{8},,,,,,,,
{8},,,,,,,,
{8}2/8V64[16:3],,,,{12}3h[6:1],,6,6,5,,
{8}7/4-1[6:1],,,,{12}6h[6:1],,2,2,8,,
{8}3/5q4[16:3],,,,{12}1h[6:1],,7,7,5,,
{12}3/4,2,2,5/6,7,7,4v1[12:1]/8-5[12:1],,,4b/8b,,,
{8}2h[24:1]/8h[24:1],3h[24:1]/4h[24:1],1-5[12:1]/7h[24:1],5h[24:1]/6h[24:1],1>4[12:1]*<6[12:1],,1,,
{8}2h[24:1]/1h[24:1],5h[24:1]/4h[24:1],8<5[12:1]/7h[24:1],3h[24:1]/6h[24:1],8v3[12:1]*p4[12:1],,8,,
{8}2h[24:1]/8h[24:1],4h[24:1]/5h[24:1],7h[24:1]/1h[24:1],4h[24:1]/3h[24:1],8h[24:1]/1h[24:1],3h[24:1]/6h[24:1],7h[24:1]/2<7[12:1],4h[24:1]/5h[24:1],
{8}2/6>3[12:1],,2qq7[24:7]*pp5[24:7]/6,,2,,,,
{8}3h[24:1]/8h[24:1],1h[24:1]/4h[24:1],3-6[12:1]/7h[24:1],1h[24:1]/5h[24:1],3p6[12:2]*>6[12:2]/7,,3,,
{8}2h[24:1]/5h[24:1],4h[24:1]/7h[24:1],1h[24:1]/6-1[12:1],3h[24:1]/8h[24:1],6V42[24:3]*V82[24:3]/5,,6,,
{8}3h[24:1]/4h[24:1],7h[24:1]/8h[24:1],6h[24:1]/5h[24:1],2h[24:1]/1h[24:1],3h[24:1]/7h[24:1],1h[24:1]/5h[24:1],4-8[12:1]/8h[24:1],2h[24:1]/6h[24:1],
{8}4/5-1[12:1],,5/4q5[8:2]*>5[8:2],,4,,,{24},,,
{12}3h[4:1]/6,,,
4,2,5,
7/4,5,6,
3,,{24}5,,
{12}4/6h[4:1],,,
1,5,3,
8,4,5,
3/6,,{24}1,,
{12}2h[4:1]/7,,,
5,3,8,
1,6,3,
4/8,,{24}3,,
{12}2-4[12:1]/6,2/6,,
2/5-1[12:1],,,
5/8>4[24:3]*<4[24:3],,,
,,{24},,
{12}3h[4:1]/5v4[12:1],,,
,,,
1,7,3,
2/4,,{24},,
{12}5h[4:1]/4pp6[24:3],,,
,,,
8,3,5,
6/2,,{24},,
{12}1h[4:1]/5p8[12:1],,,
,,,
2/6,3/7,4/8,
1<6[12:1]/5,,{24}4,,
{12}4-8[12:1]/1,,2,
2/4,,3,
{24}6/3,2,1,
8,7,6,
3/5,2,1,
8,7,6,
{24}5/4,3,2,
1,8,7,
2/6,,3/4,
,7/8,,
{8}1h[24:1]/5h[24:1],2h[24:1]/3h[24:1],8-3[12:1]/4h[24:1],5h[24:1]/6h[24:1],1/8-5[12:1]*-4[12:1],,8,,
{8}3h[24:1]/7h[24:1],1h[24:1]/4h[24:1],2-6[12:1]/6h[24:1],5h[24:1]/8h[24:1],7/2v8[12:1]*v4[12:1],,2,,
{8}1h[24:1]/5h[24:1],5h[24:1]/3h[24:1],5h[24:1]/7h[24:1],5h[24:1]/4h[24:1],8h[24:1]/4h[24:1],4h[24:1]/6h[24:1],4<7[12:1]/2h[24:1],4h[24:1]/5h[24:1],
{8}4/1>4[12:1],,1/6qq2[24:7]*pp2[24:7],,6,,,,
{8}1h[24:1]/7h[24:1],3h[24:1]/5h[24:1],2qq7[24:7]/8h[24:1],6h[24:1]/4pp8[24:7],2,,,,
{8}1h[24:1]/6h[24:1],4h[24:1]/8h[24:1],5qq2[24:7]/2h[24:1],4h[24:1]/7qq4[24:7],5,,,,
{8}1h[24:1]/5h[24:1],2h[24:1]/6h[24:1],3h[24:1]/7h[24:1],4h[24:1]/8h[24:1],1h[24:1]/5h[24:1],2h[24:1]/6h[24:1],3s7[24:3]/7h[24:1],4h[24:1]/8h[24:1],
{8}3V14[24:4]*V58[24:4],,3,,{24}2,2,4,4,3,3,
7,7,5,5,6,6,
{24}1,1,5,5,3,3,
8qq1[8:2],8,4,4,6,6,
{8}2b<3[12:6]*<3[12:6],,,,,,,,
{12}3h[4:2],4,4,5,5,5,
6h[4:1],5,5,4h[4:1],5,5,
{12}7h[4:2],6,6,5,5,5,
4h[4:1],5,6,7h[4:1],6,5,
{12}4h[4:1],6,8,5h[4:1],3,1,
4h[4:1],2,8,5h[12:2],7,1,
{12}2/4,3/5,4/6,8/5,7/4,6/3,
1w5[12:1]/5,,,1b,,,
{24}3/7,,2,4,2,,
5/6,,4/5,,3/4,,
2/6,,7,8,7,,
3/1,,2/8,,1/7,,
{24}5/6,,4,8,4,,
3/5,,1/7,,2/6,,
3pp5[24:3]/8v1[12:1],,5/4,,2/7,,
,,,,,,
{8}4>2[12:1]/7>1[12:1],,4-6[12:1]/7-5[12:1],,4z8[24:3]/7s3[24:3],,,,
{8}4>5[8:4]/5<4[8:4],,,,,,,,
{8}3,3`4,3q5[12:4]/4,,,,,,
{8}6,6`4,6V83[12:4]/4,,,,,,
{8}1/5,3`7,1qq4[12:4]/5qq8[12:4],,,,,,
{8}1h[8:0]/2h[8:0],4h[8:0]`5h[8:0],7h[8:0]/2h[12:9],,
{12}3,3,3,
8,8,8,
6v3[12:1]*v1[12:1],,,
6b,,,
{24}2,3,4,
8,7,6,
1,2,3,
7,6,5,
2,3,4,
5,6,7,
3,2,1,
8,7,6,
{24}2,3,4,
7,6,5,
1,2,3,
8,7,6,
4,3,2,
7,6,5,
3,2,1,
6,5,4,
{24}2,3,4,
5,6,7,
1,2,3,
4,5,6,
8,1,2,
3,4,5,
7,8,1,
2,3,4,
{12}1/5,5/7,3/7,
3/5,1/5,1/7,
3>8[12:1]/7<4[12:1],,,
3b/7b,,,
{8}2h[24:1]/8h[24:1],3h[24:1]/4h[24:1],1h[24:1]/7h[24:1],5h[24:1]/6h[24:1],{24}3q4[24:4]/4,2,1,8,7,6,
3/5,,,,,,
{8}5h[24:1]/6h[24:1],4h[24:1]/7h[24:1],1h[24:1]/2h[24:1],3h[24:1]/8h[24:1],{24}6z2[24:3]/5,7,8,1,2,3,
6/4,,,,,,
{8}1h[24:1]/8h[24:1],2h[24:1]/3h[24:1],5h[24:1]/4h[24:1],6h[24:1]/7h[24:1],8h[24:1]/5h[24:1],4h[24:1]/1h[24:1],2<7[12:1]/3<6[12:1],1h[24:1]/4h[24:1],
{8}2-6[12:1]/3-7[12:1],,2<3[8:2]/3<2[8:2],,2/3,,,,
{8}3h[24:1]/4h[24:1],1h[24:1]/8h[24:1],2h[24:1]/6h[24:1],7h[24:1]/4h[24:1],{24}8p1[24:3]/3,7,6,5,4,3,
2/8,,,,,,
{8}2h[24:1]/7h[24:1],4h[24:1]/5h[24:1],1h[24:1]/8h[24:1],3h[24:1]/6h[24:1],{24}2pp2[24:4]/7,3,4,5,6,7,
2/8,,,,,,
{8}1h[24:1]/4h[24:1],2h[24:1]/5h[24:1],3h[24:1]/6h[24:1],4h[24:1]/7h[24:1],5h[24:1]/8h[24:1],6h[24:1]/1h[24:1],7v1[12:1]/2v4[12:1],8h[24:1]/3h[24:1],
{8}2v8[12:1]/7v5[12:1],,2qq4[24:7]/7pp4[24:7],,2/7,,,,
{8}3b>6[24:4]/6,,,,3b>6[24:4]*>6[24:4]/6,,,,
{48}8h[16:1]/2,3,4,,,,
1h[16:1]/7,6,5,,,,
8h[16:1]/2,3,4,,,,
1h[16:1]/7,6,5,,,,
{24}3w7[12:1],3,3,3,
3,3,
3,,,,,,
{8}1h[24:1]/5-1[12:1],3h[24:1]/8h[24:1],5/7h[12:1],6h[24:1]/2h[24:1],3h[12:1]/5h[12:1],1h[12:1]/7h[12:1],3h[24:1]/4h[24:1],8h[24:1]/7h[24:1],
{12}1-5[8:1]/2-6[8:1],5h[24:1]/6h[24:1],3h[24:1]/8h[24:1],
1qq4[24:7]/2,,7/3q6[24:7],
1/2,,,
,,,
{8}7h[24:1]/5h[24:1],1h[24:1]/8h[24:1],2h[24:1]/4h[24:1],1h[24:1]/8h[24:1],{24}2/7,6,5,4,3,2,
1/8,7,6,5,4,3,
{8}2h[24:1]/5h[24:1],8h[24:1]/7h[24:1],7h[24:1]/4h[24:1],2h[24:1]/1h[24:1],{24}3/8,4,5,6,7,8,
1/2,3,4,5,6,7,
{8}8h[24:1]/4h[24:1],2h[24:1]/6h[24:1],1h[24:1]/5h[24:1],3h[24:1]/7h[24:1],4h[24:1]/5h[24:1],1h[24:1]/2h[24:1],3>1[12:1]/6v1[12:1],7h[24:1]/8h[24:1],
{8}6<8[12:1]/3v8[12:1],,3/6,,
{32}1/5,2,3,4,5,6,7,8,
1,2,3,4,5,6,7,8,
1,2,3,4,5,6,7,8,
1-5[12:1],2,3,4,5,6,7,8,
{96}1b,,,,,,,,
,,,,,,,,
,,,,,,,,,
,,,,,,,7h[8:0]
,,,,,,,,,
,,,,,,,
,,,,,,,,
,,,,5h[8:0],,,,
,,,,,,,,
,,,,,,,,,,,,,,,,
,,,,,,,,
{1}3V14[24:6]*pp4[24:6],,
