&title=とまどい→レシピ
&artist=みかくにんぐッ!
&first=0
&des=WuWai
&lv_5=13
&inote_5=(170){1},
{16}8,,,,7,,,,6h[4:1],,,,8,,1,,
{16},,2,,3v4v3[8:3],,,,,,,,,,,,
{16}1,,,,8,,,,7h[4:1],,,,1,,2,,
{16},,3,,4v5v4[8:3],,,,,,,,,,,,
{16}2,,,,1,,,,8h[4:1],,,,2,,3,,
{16},,4,,5v6v5[8:3],,,,,,,,,,,,
{16}3,,,,2,,,,8h[4:1]/1,,,,4,,5,,
{16},,6,,4-2[8:1]/5-1[8:1],,,,4b-8[8:1]/5b-7[8:1],,,,4b/5b,,,,
{16}1bx/2bx,,,,3/8,,,,7,,6h[4:1],,,,2h[4:1],,
{16},,4,,3<6p2[8:3],,4,,,,,,,,,,
{16}8bx/7bx,,,,6/1,,,,2,,3h[4:1]/5,,5<8v5[8:3]*<8v3[8:3],,,,
{16},,,,,,,,2h[4:1],,8,,6h[8:1],,1,,
{16}8bx/7bx,,,,6/1,,,,2,,3h[4:1],,,,7h[4:1],,
{16},,5,,6>3q7[8:3],,5,,,,,,,,,,
{16}1,,1,,8,,8,,1,,8,,27,,5,4,
{16}5,,3,,4,,5-7[8:1]*-3[8:1],,6,,5,,,,,,
{16}1>5[4:1],,,,5,,,,7h[4:1],,,,5,,5h[4:1],,
{16},,6,,5,,4,,3<5[8:1],,3,,,,7,,
{16}8h[4:1],,,,6,,5h[4:1],,,,7,,8,,1,,
{16}2h[4:1],,,,8h[4:1],,,,1,,2>5[8:1]/8<5[8:1],,1,,28,,
{16},,,,3,,3>1[8:1],,4,,4,,5>3[8:1],,5,,
{16}6,,6,,7<5[8:1],,7,,8,,8,,1-6[8:1],,1,,
{16}2h[4:1],,,,5,,4,,3h[4:1],,,,5,,6,,
{16}7h[8:6]/D4,,D5,,D6,,D7,,D8,,D1,,D2,,,,
{16}8<4[4:1],,,,4,,,,2h[4:1],,,,4,,4h[4:1],,
{16},,3,,4,,5,,6>4[8:1],,6,,,,2,,
{16}1h[4:1],,,,3,,4h[4:1],,,,2,,1,,8,,
{16}7,,1-3[8:1],,5,,1-7[8:1],,5,,1-5[8:1],,5>2[8:1],,1,,
{16},,6,,6,,5,,47,,3,,3,,5,,
{16}4qq4[8:4]*pp4[8:4],5,4,5,4,,,,,,,,,,,,
{16}5,,3,,3,,4,,25,,3,4,3,,6,5,
{16}6,,4/7pp2[2:1],,,,,,,,3,,3,,4,,
{16}4>1[4:1],,,,1p4[4:1],,,,4>1[4:1],,,,8,,,,
{16}5,,6,,4,,3h[8:4],,,,6,,6,,5,,
{16}5<8[4:1],,,,8q5[4:1],,,,5<8[4:1],,,,1,,,,
{16}4,,3,,5,,6h[8:4],,,,3,,3,,4,,
{16}4>1[4:1],,,,1p4[4:1],,,,4>1[4:1],,,,8,,,,
{16}5,,6,,4,,3h[8:4],,,,6,,6,,5,,
{16}5<8[4:1],,,,8q5[4:1],,,,5<8[4:1],,,,1,,,,
{16}2h[4:1],,,,1,,2,1,2,,38,,47,,6,,
{16}5,,5,,6,,47,,4,,4,,3,,25,,
{16}7,,7,,8,,16,,3,4,3,4,3,,25,,
{16}4,5,4,5,3,6,3,6,2,7,2,7,1,8,1,8,
{16}2b/7b>3v5[2:1],,,,,,,,,,,,4,,,,
{16}1b>4[8:1]/8b,,,,2-5[8:1]/1,,,,4x-1[8:1],,5x,,6xq7[8:3],,,,
{16}6,,,,1>4[8:1],,1,,,,5,,6,,7,,
{16}8b<5[8:1]/1b,,,,7-4[8:1]/8,,,,5x-8[8:1],,4x,,3h[4:1],,,,
{16}1,,2-5[8:1]/4-8[8:1],,3,,24,,,,7,,5,,6,,
{16}1-3[8:1]/8-4[8:1],,,,1-5[8:1]/8-6[8:1],,,,1>4[8:1]/8,,,,8<5[8:1]/1,,,,
{16}18,,,,4,,3h[4:1]/5,,,,1,,8,,7,,
{16}4-2[8:1]/5-7[8:1],,,,45,,,,18,,,,2,7,3,6,
{16}4h[4:1],,,,7,,5,6,4,5,3,,26,,,,
{16}1b-4[8:1]/8b,,,,2p3[64:15]/1,,,,4x>1[8:1],,5x,,6xq7[8:3],,,,
{16}6,,,,1>4[8:1],,1,,,,5,,6,,7,,
{16}8b-5[8:1]/1b,,,,7q6[64:15]/8,,,,5x<8[8:1],,4x,,3hx[4:1],,,,
{16}1,,2-5[8:1]/4-8[8:1],,3,,24,,,,7,,5,,6,,
{16}1>3[8:1]/8q4[8:1],,,,8<6[8:1]/1p5[8:1],,,,1>4[8:1]/8,,,,8<5[8:1]/1,,,,
{16}18,,,,4,,35,,6,,1,8,1,,27,,
{16}1b>5[8:1],,,,1b<5[8:1],,,,1b>5[8:1]*>3[12:1],,,,1b<5[8:1]*<7[12:1],,,,
{16}1b-5[8:1],,,,1b-4[8:1]*-6[8:1],,,,1bw5[8:1],,,,1b,,,,
{16}3hbx[16:3]/7hbx[16:3],,,,7h[16:3]/3h[16:3],,,,28,,1,,8,,1h[4:1],,
{16},,4,,2q7pp1[8:3]/3<6pp8[8:3],,,,,,,,,,,,
{16}D8/E8/E2/D2/C/E5/D5/B7/B2,,,,,,,,,,,,,,,,
{1},E
