&title=T+ VS SHARK
&artist=t+pazolite
&first=0.14514
&des_5=B+ VS MIYA
&lv_5=14+?
&des=B+ VS MIYA
&clock_count=4
&inote_5=(200){4},{1},,,,,,,,{4},,,{1}3h[1:1]/4-8<7-1[4:3],
,2-6[4:3]/8-4[4:3],
,5h[1:1]/7V51[4:3],
,4h[1:1]/2v3-5[4:3],
{8},,,,,5,{4}5,
1b<7[4:1],7-3[4:1],3<5[4:1],6,
7,8s4[8:3]/1z5[8:3],,,{2}8x-4[8:1]*-6[8:1],
8xz4[8:1]*-5[8:1],
{4}8x-5[8:1],8,1xv4[8:1],1,
7-5[8:1],8-4[8:1],7-5[8:1],8-4[8:1],
{8}7-5[8:1],7,8-4[8:1],8,7-5[8:1],7,8,8,
{16}7x,6,5,4,8x,1,2,3,5x,6,7,8,1x,2,3,4,
{8}5/8x<4[16:3]*>4[16:3],8,{4}8,{8}6-4-2[16:3]*-1-3>2[16:3],6,{4}B6,
{8},,3/6bh[8:1],4x,3/6h[8:1],4x,3/6h[8:1],4x,
6/2h[8:1],5x,6/2h[8:1],5x,6/2h[8:1],5x,{4}6/2,
{8}6/3h[8:1],5x,6/3h[8:1],5x,6/3h[8:1],5x,4/7h[8:1],5x,
4/7h[8:1],5x,4/7h[8:1],5x,7/3<6[8:1],4x,{4}3,
{8}7/8,6x,7/8,6x,7/8,5x,7/8,4x,
7/8,5x,7/8,6x,7/8,1x,{4}7/8,
{8}2`1,3x,2`1,3x,2`1,4x,2x<7-5<6-8-2-7[4:3]`1x,4x`3x,
{1}Ch[4:3],
{8}4-1[8:1],4x,5-8[8:1],5x,4-1[8:1],4x,5-8[8:1],5x,
4-1[8:1],4x,5-8[8:1],5x,4-1[8:1],4x,5,6,
7-2[8:1],7x,6-3[8:1],6x,7-2[8:1],7x,6-3[8:1],6x,
7-2[8:1],7x,6-3[8:1],6x,7-2b[8:1],7x,{4}2b,
{8}7-5[8:1],8,2-4[8:1],1,7-4[8:1],8,2-5[8:1],1,
7<5[8:1],8,2>4[8:1],1,8<5[8:1],1,8,1,
1x/5x,5x/1x,6/2,2/6,7/3,3/7,4/8,4/8,
1-5[8:1],5>3[8:1],{4}3-7[8:1],8-2[8:1],8w4[8:1],
{1}8b<3q5<3b[4:13]`Cf,
{4},,,,,,,,,,4xh[8:1],
5xh[8:1],
{8}6-1[8:1],5,{4}6/4,{8}3-8[8:1],4,{4}3/5,
{8}6<1[8:1],5,{4}6/4,{8}3>8[8:1],4,{4}3/5,
{16}7,8,7,8,6,1,6,1,{24}6,5,4,1,2,3,7,6,5,8,1,2,
{4}7x-4b[8:1]/3xv8b[8:1],3x/7x,{8}6-4-2[16:3]*-1-3>2[16:3],6x,{4}B6,
{2}Cfh[2:1],{8}5bxh[8:3],7x,7x,7x,
1h[8:3],3,3,3,5-1[8:1],1,{4}5,
{8}4h[8:3],2,2,2,8h[8:3],6,6,6,
4-7[8:1],7,{4}7/4-1[8:1],4/2-6[8:1],2x,
{48}5xh[4:1]/D7,A7,D8,A8,D1,A1,D2,A2,D3,A3,D4,A4,,,,,,,,,,,,,{8}8bh[8:3],6,6,6,
4h[8:3],2,2,2,8-4[8:1],4,{4}8,
{8}1bxh[8:3],3,3,3,5h[8:3],7,7,7,
{4}B7/E7/B6/Ch[2:1],{16},,,,,,,,4x,3x,2x,1x,
{8}8-3[8:1],8,4-7[8:1],4,1-4[8:1],1,5-8[8:1],5,
{16}2,3x,4x,5x,1,8x,7x,6x,{4}5x-8[8:1]/4-1[8:1],Cf/B7/B6/B3/B2,
{8}7x-1[8:1],5,5,5,2x-8[8:1],5,5,5,
7x-1[8:1],5,{4}7b-4[8:1],7b/2v5[8:1],2,
{8}7x>1[8:1],5,5,5,2x<7[8:1],5,5,5,
6x<1[8:1],5,5,5,4x>1[8:1],5,5,5,
8,8,5/7,5,4/6,6,3/5,3,
4/2,4,4-6[8:1],4-2[8:1],4x-7b[8:1],4x-1b[8:1],4x,4x,
8bx,8,8/6x,8,8/4,8,8/2,8,
1bx,1,1/3,1,1/5,1,1/7,1,
8b,8,8/6x,8,8/4h[8:1],8,8/2h[8:1],8,
1b,1,1/3,1,1/5h[8:1],1,1/7h[8:1],1,
3b>8[8:1],3,5<8[8:1],5,4bp7[8:1],4,5q2[8:1],5,
4bp8[8:1],4,5q1[8:1],5,4b>8[8:1],4,5<1[8:1],5,
{16}2b,3,4,5,2b,3,4,5,1b,8,7,6,8b,7,6,5,
{1}8V25-1-7[8:5]/4V61-5-3[8:5],
Cf/B4/B5/D7/D8/D1/D3/A3/D4/A4/D5/A5/D6/A6/A7/E2/E8/E1/A1/D2/A2/B2/E3/B3/E4/E5/E6/B6/E7/B7/B8/A8/B1,
,,,6>3v4v5v6b[4:5],
,1qq4b[2:1]/7pp4b[2:1],
4v2<6b[2:1],
{2}5pp2[4:3],{16}3,,,3,,,{8}4,
,5,{4}5,{16}6,,,5,,,{8}4,
{2}4qq7[4:3],{16}6,,,6,,,{8}5,
,4,{4}4,{16}3,,,4,,,{8}5,
{1}5h[4:7]/4h[4:7],
,3-1q5[2:3]/7-1p5[2:3],
{4},,,,2b-7[2:3],
3,3,3,
3,3,4,5,
7-2[2:3],6,6,6,
6,6,7,8,
{8}1-5[8:1],8,7/1,7,8-4[8:1],1,8/2<7[8:1],2,
6>3[8:1],6,1<6[8:1],1,4>1[8:1],4,8,8,
{16}8,7,6,5,4,3,2,1,{32}8bx,7,6,5,4,3,2,1,8bx,7x,6x,5x,4x,3x,2x,1x,
{4}8b/4b,{8}7b-2[8:1]/3b-6[8:1],1b/5b,{4}7b/3b,C,
{8}5/1b-3[8:1],3,5/1-6[8:1],7,5/1-4[8:1],3,5/1-7[8:1],7,
5/1b-3[8:1],3,5/1-6[8:1],7,5/1-5[8:1],3,{4}5/1,
{8}4/8b-6[8:1],6,4/8-3[8:1],2,4/8-5[8:1],6,4/8,4,
{16}4h[8:1]/8bh[8:1],,,3h[8:1]/7bh[8:1],,,{8}2/6b,{2}5b/1-5[8:1],
{8}8b/7b,6b/5b,4b/3b,2b/1b,1b/7b,5b/6b,8b/2b,4b/3b,
7b/6b,1b/2b,{16}7b,8b,{8}7b,5b/3b,{16}1b,2b,{8}1b,8b/6b,
{16}2bx/1bx,3bx/8bx,{8}4bx/7bx,6bx/5bx,{16}4bx,7bx,{8}2bx,{16}1bx,8bx,3bx/7bx,4bx,5bx/8bx,1bx,
{4}2b-7[8:1]/6b-3[8:1],6xV48v5[4:1]/2xv8v5b[4:1],,A5f,
{8}2b-5b[8:1],2b,{4}2b/8>3b[8:1],3/8b<5b[8:1],{8}8/5b,4b,
{4}3b-7b[8:1],3/8b-2b[8:1],{8}8/5-2b[8:1],6-1b[8:1],5,6,
4b-8b[8:1],3b,{4}4b/6-1b[8:1],6b/2-5b[8:1],{8}2b/6,7,
{16}4bh[8:1]/8h[8:1],,,3bh[8:1]/7h[8:1],,,{8}2b/6,{4}1bh[4:1]/5h[4:1],{48}D2/D6,A2/A6,D3/D7,A3/A7,{6}D4/D8,
{16}8bxh[32:1],7bx,2bx,1bxh[32:1],5bx,8bx,4bx,6bxh[32:1],1bx,5bx,3bxh[32:1],8bx,7bxh[32:1],1bx,5bx,3bx,
4bx,4bx,4bx,4bx,6bx,6bx,6bx,6bx,{24}7bx,7bx,7bx,8bx,8bx,8bx,{32}1bx,1bx,1bx,1bx,2bx,2bx,2bx,2bx,
{48}E2/E3/Cf,B1/B3,B8/B4,E8/E5,{12}A7/A5,,,,,,,,{4}6xqq1[2:1]/4xpp1[2:1],
{2}6x/4x,A1f/D1/D2/A2/A8,
{8}7b-1[8:1],5,7-4[8:1],4,7,{16}3-8b[8:1],3,,7,{8}3,
6-1[8:1],5,4,3,2b-5[8:1],{16}4,4,{8}2-8[8:1],7-3[8:1],
2,7-5[8:1],1x-5[8:1],7,1-3b[8:1],{16}4,4,{8}1x,6,
7-4[8:1],8,1/7,1,{16}1,2,3,4,6x/5x,7,8,1,
{8}2b-5[8:1],5>2[8:1],2V86[4:1],7,6V82b[4:1],{16}5,5,,4,{8}4,
5-1b[8:1],4-2b[8:1],5xV38-6[8:3],4x,5,{16}1x,1x,,3x,{8}3x,
4-8[8:1],3,4/5-1[8:1],6,5-7b[8:1],{16}2,2,{8}5x,3,
{24}8,7x,6x,4/5x,,,1,2x,3x,5/4x,{48},,,,{16}7x,6,8,5,{8}1,{16}3,3,
{8}4b<7b[8:1],5,4/8>3[8:1],1,8-4b[8:1],{16}6,6,{8}8-2b[8:1],7,
8-6b[8:1],3,8-4b[8:1],5,8,{16}2,2,,7x/1x,{8}7x/1x,
2/8<5[8:1],7,8/4>1b[8:1],3,4-8b[8:1],{16}6,6,{8}4-2b[8:1],5,
4-6b[8:1],1,4-8b[8:1],7,4,{16}7x,7x,,1x/6x,{8}1x/6x,
7b-4[8:1],4<7[8:1],7V13[4:1],2,3V17b[4:1],{16}4,4,,5,{8}5,
{16}6h,6h,,8,{8}7h/1h,{16}2,1h/3h,,4,{8}3h/5h,{16}5,6h/4h,,,{8}2b/1b,
4/2,7/8,5/7,1b/3b,2/4,8/6,7/5,
{16}2b,3,2,4,1b,8,1,7,5b,6,4b,7,3b,8,2b,1,
{1}Cf/E2/B2/A3/E4/B4/E5/B5/B6/D6/D7/A7/D8/A8/D1/E3/A1/A2/D3/D4/A4/D5/A5/E6/A6/E7/B7/E8/B8/E1/B1/D2/B3,
,4bh[4:7]/B7f/C/E1/E8/B8/D8/A7/D7/E7/B6/B1/A8/B5,
,5bh[1:2]/B2f/C/E1/E2/B1/D2/A2/D3/E3/B3/B8/A1/B4,
,Cf/B2/B3/E3/B7/E7/B6,
,{48}2/7,
6/3,{24}4/5,
E
