&title=HATEN CODE 583
&artist=MYUKKE.
&first=0
&des_5=[场外] H3g
&lv_5=14
&des=[场外] H3g
&inote_5=(200){1},
{4}7h[2:1],5,3h[2:1],4,
{4}6,7/5,7h[4:1]/5h[4:1],,
{4}6h[2:1],5,2h[2:1],4,
{4}6,6/5,6h[4:1]/5h[4:1],,
{8}6,5,4,3h[8:3],
,2,2,,
{8}3,4,5,6h[8:3],
,7,7,,
{8}6,5,4,3,
7,6,3,2,
{8}8,7,2,1-5[8:1],
,8,8,,
{8}6b,5p4[16:5],4,3,
,2,2h[4:1],,
{8}3,4q5[16:5],5,6,
,7,7h[4:1],,
{8}6,6h[4:1],4,4h[4:1],
2,2h[4:1],8,8h[8:7],
{8}2,1,2,1,
2,1b,2b,,
{8}3,4q5[16:5],5,6,
,7,7h[4:1],,
{8}6,5p4[16:5],4,3,
,2,2,,
{2}1-6[8:1]/2-5[8:1],8-5[8:1]/1-4[8:1],
{8}7-4[8:1],8-3[8:1],7,8,
,6,2b/6b,,
{8}3,3h[8:3],4,,
2,2h[8:3],1,,
{8}3,4,1,3,
4,2,2h[4:1],,
{8}1,4,4,2,
4,3,2h[4:1],,
{4}5-7[8:1],2-4[8:1],5-7[8:1],2-4[8:1],
{8}6,6h[8:3],5,,
7,7h[8:3],8,,
{8}6,5,8,6,
5,7,7,7,
{8}7^4[8:1],1,2,3h[8:3],
,4,4,,
{8}2^5[8:1],8,7,6h[8:3],
,5,5,,
{8}3,3h[2:1],1,,
4,4h[8:3],6,,
{8}2h[8:1],3h[8:1],4h[8:1],5h[8:1],
2,3,4,5,
{8}6,6h[2:1],8,,
5,5h[8:3],3<1[4:1],,
{8},,2-4[8:1],2-6[8:1],
2-8[8:1],,,,
{2}7bw3[8:1],1h[4:1]/5-1[8:1],
{2}3w7[8:1],5h[4:1]/1-5[8:1],
{8}6^1[8:1],4,3,2h[8:3],
,1,1,,
{8}3^8[8:1],5,6,7h[8:3],
,8,8,,
{8}1b,2/4q5[3:1],5/3,6,
,7,7h[4:1],,
{8}6,7/5p4[3:1],4/6,3,
,2,2h[4:1],,
{8}3-8[8:1],4,5,,
7-4[8:1],8,1,,
{8}3/5,2,3/5,2,
3-5[8:1]/5-7[8:1],2,,,
{8}8,7/5p4[3:1],4/6,3,
,2,2h[4:1],,
{8}3,2/4q5[3:1],5/3,6,
,7,7h[4:1],,
{8}6-1[8:1],5,4,,
2-5[8:1],1,8,,
{8}6-1[8:1],2-5[8:1],6,2,
,7/3,3/7,,
{8}8b,7/5pp4[3:1],4/6,3,
,2,2h[4:1],,
{8}3,2/4qq5[3:1],5/3,6,
,7,7h[4:1],,
{8}6^1[8:1],5,4,,
2^5[8:1],1,8,,
{8}6/4,7,6/4,7,
6-4[8:1]/4-2[8:1],7,,,
{2}3b>5[16:5]/6,4-7[8:1]*-1[8:1],
{8}6b<4[16:5]/3,,,5-2[16:3],
5-8[8:1],,,,
{2}1-5[8:1]/5h[4:1],3-8[8:1]/7-4[8:1],
{2}5-1[8:1]/1h[4:1],3-6[8:1]/7-2[8:1],
{8}4^1[8:1]/8,,7,6,
8-4[8:1]/5,,6,7,
{8}5/8-4[8:1],,2,1,
8-4[8:1]/5,,5,6,
{4}3-8[8:1]/7,5h[8:3],6-2[8:1],4h[8:3],
{4}3-8[8:1],5h[8:3],6-2[8:1]*-4[8:1],,
{8}5^8[8:1]/1,,2,3,
1-5[8:1]/4,,3,2,
{8}4/1-5[8:1],,7,8,
1-5[8:1]/4,,4,3,
{4}6-1[8:1]/2,4h[8:3],3-7[8:1],5h[8:3],
{4}6-1[8:1],4h[8:3],3-7[8:1]*-8[8:1],,
{4}6qq5[2:1]/2qq1[2:1],,,,
{4}2,1,8,7,
{4}6qq7[2:1]/2qq3[2:1],,,,
{8}3/7h[2:1],,2,,
1-5[8:1],1,8b,,
{8}4^1[8:1]/7,,7,6,
8-4[8:1]/5,,6,7,
{8}5/8-4[8:1],,3-1[8:1],3,
7-5[8:1],7,8,,
{16}3,5,3,5,2,6,2,6,
{32}2,3,4,5,6,7,8,1,{4}2-5[8:1],
{8}8b-4[8:1],,3,1b-6[8:1],
,5,7b,,
{16}2b/8b,,3,4,
2,,6,5,
7,,3,4,
2,,6,5,
{8}7-5[8:1],7,1-3[8:1],1,
4-8[8:1],4,2,2,
{16}7/1,,6,5,
7,,3,4,
2,,6,5,
7,,3,4,
{8}2-4[8:1],2,8-6[8:1],8,
1-5[8:1],1,7,7,
{16}4b/8b,,3,4,
2,,7,5,
6,,3,4,
2,,7,5,
{8}6-8[8:1],6,2-4[8:1],2,
1-5[8:1],1,3,2,
{16}1/6,,6,5,
7,,8,,
8/3,,3,4,
2,,1,,
{8}1b-5[8:1]/5b,,6b,8b-3[8:1],
,4b,2b-6[8:1],,
{8}2b-4[8:1]/4b-8[8:1],,2/4-1[8:1],,
6pp3[8:3],,2,3,
{8}4V68[4:1],,8V24[4:1],,
4,,7-3[8:1],,
{8}7-5[8:1]/5-1[8:1],,7/5-8[8:1],,
3qq6[8:3],,7,6,
{8}5w1[8:1],,5,,
7-3[8:1],1b,1b,,
{8}2-4[8:1],2,5-1[8:1],6,
7-5[8:1],7,4-8[8:1],,
{8}1-3[8:1],1-7[8:1],1-4[8:1],1-6[8:1],
1-5[8:1],,,,
{4}6b<4[16:5]/3,4,5-2[8:1]*^8[8:1],5,
{8}3b>5[16:5]/6,,5,4-7[16:3],
4^1[8:1],,,,
{8}8b,7/5pp4[3:1],4/6,3/5,
2,1,1h[4:1],,
{8}3,2/4qq5[3:1],5/3,6/4,
7,8,8h[4:1],,
{16}6,,7,5,
6h[8:1],,3,4,
2h[8:1],,8,1,
7h[8:1],,5,,
{8}6/4,7,6/3,7,
6-4[8:1]/2-8[8:1],7,,,
{8}1,2/4qq5[3:1],5/3,6/4,
7,8,8h[4:1],,
{8}6,7/5pp4[3:1],4/6,3/5,
2,1,1h[4:1],,
{8}3-7[8:1],3,2-5[8:1],1,
8-4[8:1],7,3,,
{8}3b/5b,2b-5[8:1]/6b-1[8:1],,2b/6b,
,4b/8b,2b/6b,,
{8}3-8[8:1],3,6-3[8:1],6,
1-6[8:1],1,4-1[8:1],4,
{8}7-4[8:1],7,2-7[8:1],2,
5-2[8:1],5,8,,
{16}6h[8:1],,1,5,
3h[8:1],,8,2,
4h[8:1],,1,7,
5h[8:1],,8,,
{8}6/4,7/3,6/4,7/3,
6-8[8:1]/4-2[8:1],7/3,,,
{8}6-1[8:1],5,3-6[8:1],2,
8-3[8:1],7,5-8[8:1],4,
{8}2-5[8:1],1,7-2[8:1],6,
4-7[8:1],3,3,,
{8}8bz4[8:1]/2bs6[8:1],2/8,,,
1bv4[8:1]/7bv4[8:1],7/1,,,
{16}3,,3,,
5,,4,6,
4,6,4,,
8b,,,,
{8}2,2h[4:1],4-1[8:1],,
6,6h[4:1],8-5[8:1],,
{8}1^3[8:1],1^6[8:1],,,
4-6[8:1],4-8[8:1],,,
{8}7,7h[4:1],5-1[8:1],,
4,4h[8:3],2>8[4:1],,
{8},,1pp2[16:3],1qq8[16:3],
1s5[4:1],,,,
{2}8bw4[8:1],2-5[8:1]/6-1[8:1],
{2}8h[16:3]/4w8[8:1],2-5[8:1]/6-1[8:1],
{8}8,7/5pp4[3:1],4/6,3/5,
,2,1h[4:1],,
{8}3,2/4qq5[3:1],5/3,6/4,
,7,8-3[8:1],,
{8}4h[8:3],,,3h[8:3],
,2,2,,
{8}7h[8:3],,6,6h[8:3],
,5,5,,
{8}4-6[8:1],3,2,2-6[8:1],
,7,7h[4:1],,
{8}6,5pp4[3:1],4,3,
,1b,1b,,
{16}3,5,3,5,
3,,2^5[8:1],1,
2,,8,,
8,,6,5,
{16}6,,7,,
7,,1,8^5[8:1],
2,8,2,,
3b,,,,
{16}3,5,3,5,
2,6,2,6,
{24}1-5[8:1],7,1,7,1,7,
{8},,
{8}8-3[8:1],4qq5[8:3],8,4,
,6,7b-4[8:1],,
{8}5h[8:3],,,8h[8:6],
,,3h[8:3],,
E
