&title=FEEL ALIVE
&artist=ELEMENTAS feat. NAGISA
&first=0
&des=ELAINE BLATH
&lv_6=14
&inote_6=(162)
{1},
{1}1<1[8:20]*<5[8:10]*<7[8:5]*<3[8:15]*<8[16:5]*<6[16:15]*<4[16:25]*<2[16:35],,,
{16}5-8[8:5],,,,4,,,,5,4,,4,5,,,,
{8}1b,3,2,4,3,5,4,6,{16}5,7,5,7,4,6,4,6,3,5,3,5,2,4,2,4,
{16}1,5,4,5,8,6,5,6,1,5,4,5,2,4,3,4,{16}2,5,1,6,8,7,1,6,8,7,2,5,8,7,3,4,
{16}1b/6b,,,,5,7,5,7,4,6,4,6,3,5,3,5,2,6,2,7,2,8,2,1,2,3,2,4,2,5,2,6,
{16}2,7,1,7,8,7,6,7,5,7,4,7,3,7,2,7,{16}1,7,3,5,2,8,4,6,8,7,3,4,2,1,5,6,
{16}4/7,,,1/8,,,2/5,,,,4/7,,3/8,,1/2,,{16}2,2,2,,4,4,4,,6,6,6,,8,8,8b,,
{16}1b/2b,,3,4,,8,7-4[8:1],,3,,2,,1,2,3,4,5/6,,2,1,,3,4-7[8:1],,2,,1,,8,1,2,3,
{16}4/7,,8/1,,2/5,,1,8-4[8:1],,7/2,,8/1,,,1,1,
{16}5,6,7,8,1,2,3,4,8,7,6,5,4,3,2,1,
{16}8b/7b,,6,5,,1,2-5[8:1],,6,,7,,8,7,6,5,4/3,,7,8,,6,5-2[8:1],,7,,8,,1,8,7,6,
{16}5/2,,1/8,,7/4,,8,1-5[8:1],,2/7,,1/8,,,8,8,
{16}1,2,3,4,8,7,6,5,{32}1b,2,3b,4,5b,6,7b,8,1b,2,3b,4,5b,6,7b,8,{4}1b,
{8}6-8[8:2],,8-4[8:2],,4-2[8:2],,2,,1,,8-5[8:1],,8z4[8:6],,4b,3b,,2b,,1b,8,,
{8}6^3[8:2],,3-7[8:2],,7^2[8:2],,2,,4>4[8:4],,8<8[8:4],,4>4[8:4],,8<4[8:2],,
{8}4<4[8:4],,8>8[8:4],,4<4[8:4],,8>4[8:2],,5b,6b,,7b,,8b,1,,
{8}2/8,2-6[8:1]/8,,2/8-4[8:1],,2/8,,,
{8}3-1[8:2],,1-4[8:2],,4-8[8:2],,8-5[8:2],,5-7[8:2],,7,,8z4[8:4]*z4[8:4],,1,,
{8}2,,3,,5,,4qq5[8:4]/6pp5[8:4],,4/6,,,,,,7,,
{8}8-2[8:2],,2-7[8:2],,7-3[8:2],,3-6[8:2],,6-4[8:2],,4,,3v8[8:2]*q7[8:2],,3,,
{8},1-6[8:1],,6-4[8:1],,1s5[8:1],,1/8,,6-2[8:1],,8-3[8:1]*-5[8:1]/6,,8b,,,
{16}2,4,2,4,3,5,3,5,4,6,4,6,5,7,5,7,2,7,2,7,5,7,5,7,1,7,1,7,4,7,4,7,
{16}2b,7,5,7,1b,7,4,7,2b,7,5,7,1b,7,4,7,
{8}2^7[8:1],7^2[8:1],2^5[8:1],5^2[8:1],6-1[8:1],6-3[8:1],{16},,,,
{16}8,2,8,2,6,4,6,4,7,1,7,1,5,3,5,3,8,2,7,1,6,8,7,5,6,4,5,3,4,2,3,1,
{16}2,1,3,1,4,1,5,1,6,2,7,3,8,4,1,5,{4}2h[8:4]/6h[8:4],,,1b/8b,
{16}1b/2b,,3,4,,8-5[8:1],7,,1,,2,,3,4,5,6,8/7,,5,6,,2-7[8:1],1,,3,,4,,5,4,3,2,
{16}1/7,,7/5,,3/5,,3,1-5[8:1],,8/2,,7/1,,,8,4,
{16}8,7,6,5,4/7,6,5,4,
{24}3/7,6,5,4,3,2,1/6,5,4,3,2,1,
{16}8b/7b,,6,5,,1-4[8:1],2,,8,,7,,6,5,4,3,1/2,,4,3,,7-2[8:1],8,,6,,5,,4,5,6,7,
{16}8/2,,2/4,,6/4,,6,8-4[8:1],,1/7,,2/8,,,1,5,
{16}1,2,3,4,8,7,6,5,{32}1b,2,3b,4,5b,6,7b,8,1b,2,3b,4,5b,6,7b,8,{4}1b/5h[8:8],
