&title=ゼイタクするまで抱きしめて
&artist=kei_iwata
&first=0
&des=絶頂
&lv_5=13+
&inote_5=(145)
{1},
{8}3h[8:3]/4,,,1,2x/8x,,,1h[8:4],
{16}3,,,3,,,3,,2x-5[8:1]/4x,,,,{8},7,
7qq8[16:4],,,1-4[8:1],2-5[8:1],,,6,
{16}7x/5x,,,7x/5x,,,7x/5x,,{8}8<5[8:1],8,2,,
3h[8:3]/4,,,8,7/1,,,5h[8:4],
{16}7,,,7,,,7,,6x-1[8:1]/8x,,{8},,,
2b-4[8:1]*-5[8:1],,,,6b-8[8:1]*-1[8:1],,,,
2/4b,2,2/6bp3[8:2],2,6,,E2f,,
7x/1x,{16}2,2,{8}4-7[8:1],1,4-1[8:1],2,4,7,
2/8,{16}7,5,{8}6-1[8:1],2-5[8:1],6,2,8,3,
6/4,{16}7,7,{8}5-2[8:1],8,5-8[8:1],7,5,1,
{16}2,7,4,5,2,7,4,5,{24}3x,2x,1x,7x,6x,5x,{32}E5,C,{16}E1f,,,
{8}E2h[8:4]/E3h[8:4]/B2h[8:4]/A2h[8:4]/8x<5[8:4],,,,,,,,
2h[8:1],4,3h[8:1],1,2h[8:1],4,3,,
E8h[8:4]/E7h[8:4]/B7h[8:4]/A7h[8:4]/4>1[8:4],,,,,,,,
8h[8:1],7,5h[8:1],6,8h[8:1],7,5/6,,
E5h[8:4]/E4h[8:4]/B4h[8:4]/A4h[8:4]/7>2[8:4],,,,,,,,
3h[8:1],1,3h[8:1],7,5h[8:1],8,6/4,,
1bpp1[8:2],,,5,5bpp6[16:3],
,,,2,7/5,2qq3-5[16:5],6/4,5/2,6,B7f,,
7x/1x,{16}2,2,{8}4-7[8:1],1,4-1[8:1],2,4,7,
2/8,{16}7,5,{8}6-1[8:1],2-5[8:1],6,2,8,3,
6/4,{16}7,7,{8}5-2[8:1],8,5-8[8:1],7,5,1,
{16}2,7,4,5,2,7,4,5,{24}3x,2x,1x,7x,6x,5x,{32}E5,C,{16}E1f,,,
{8}3-7[8:1],,3/4<7[8:1],,8/4,{16},2,{8}8-4[8:1],3,
8/1>4[8:1],,5/1,,7/5,8,8/2,3,
5-2[8:1],,5/7-3[8:1],,7/1>4[8:1],{16},5,1,,{8}6,
7-5[8:1],,1-5[8:1]/7,,8-4[8:1],8,2,2,
3>8[8:1]/5,,3/4<7[8:1],,4/2-6[8:1],{16},8x,2,,{8}8,
5-2[8:1],,5/8-3[8:1],,4-7[8:1]/8,,14,,
{4}E4h[8:2]/A3h[8:2]/E3h[8:2]/8<5[8:1],,E2h[8:2]/E3h[8:2]/A2h[8:2]/4<8[8:1],,
E4h[8:2]/A3h[8:2]/E3h[8:2]/1<5[8:1],,E2h[8:2]/E3h[8:2]/A2h[8:2]/4<2b[32:6],,
4qq3qq4qq5qq4<6[8:12],,,,
,,,7b,
{8}B8f/3,6,4,2,E2f/7,5,3,1,
E7f/2,5,E2f/7,3,B8f/4-1[8:1],,A4,,
7x/1x,{16}2,2,{8}4-7[8:1],1,4-1[8:1],2,4,7,
2/8,{16}7,5,{8}6-1[8:1],2-5[8:1],6,2,8,3,
6/4,{16}7,7,{8}5-2[8:1],8,5-8[8:1],7,5,2,
7/1,{16}2,4,{8}3-8[8:1],7-4[8:1],3,7,{16}1,2,3,4,
{8}5/7,{16}6,6,{8}4-1[8:1],6,4/7-4[8:1],8,7,2,
5/3,{16}6,5,{8}7-4[8:1],3-8[8:1],7,3,5,2,
{16},1x,1x,7x,,2x,2x,5x,,1x,1x,6x,,2x,2x,5x,
1,7,4,5,2,7,4,5,{24}3x,2x,1x,7x,6x,5x,{32}E5,C,{16}E1f,,,
{8}6h[8:13]/2h[8:5],,,,,,,8,
8h[8:8],,,,,,,2,2h[8:4],,,4,4h[8:4],,,6,
6-8[8:1],,6/5-1[8:1],,5/2-6[8:1],,2,,
8h[8:5]/4h[8:15],,,,,,,2,
2h[8:5],,,,,,,1,
8/2-6[8:1],,,,1-7[8:1]/2-6[8:1],,,,
2,7/5,3-1-4-8[8:3],6/4,3/5-7b[8:1],6,Cf,,
{8}3-7[8:1],,3/4<7[8:1],,8/4,{16},2,{8}8-4[8:1],3,
8/1>4[8:1],,5/1,,7/5,8,8/2,3/4,
5-2[8:1],,5/7-3[8:1],,7/1>4[8:1],{16},5,1,,{8}6,
7-5[8:1]/8,,1-5[8:1]/7,,8-4[8:1],8,2,2,
3>8[8:1]/5,,3/4<7[8:1],,4/2-6[8:1],{16},8x,2,,{8}8,
5-2[8:1],,5/8-3[8:1],,4-7[8:1]/8,,14,,
{32}1x,2x,3x,4x,1x,2x,3x,4x,{4}E2h[8:2]/B2h[8:2]/E3h[8:2],
{32}8x,7x,6x,5x,8x,7x,6x,5x,{4}E8h[8:2]/E7h[8:2]/B7h[8:2],
{32}2x,3x,4x,5x,2x,3x,4x,5x,{4}E2h[8:2]/B2h[8:2]/E3h[8:2],
{32}8bx,7x,6x,5x,8bx,1x,2x,3x,8bx,7x,6x,5x,8bx,1x,2x,3x,
{4}8xb/4qq3qq4qq5qq4<6b[8:12],,,,,,,7b,
{8}B7f/1,6,4,2,8h[8:2],7,1h[8:1],8,
7/E2f,3,5,7,1h[8:2],2,8h[8:1],1,
{8}B8f/3,6,4,2,E2f/7,5,3,1,
E7f/2,5,E2f/7,3,B8f/4-1[8:1],,A4,,
7x/1x,{16}2,2,{8}4-7[8:1],1,4-1[8:1],2,4,7,
2/8,{16}7,5,{8}6-1[8:1],2-5[8:1],6,2,8,3,
6/4,{16}7,7,{8}5-2[8:1],8,5-8[8:1],7,5,2,
7/1,{16}2,4,{8}3-8[8:1],7-4[8:1],3,7,Cf/B8/B2/B4/B6,,
7x/3x,{16}1,1,{8}6V47[16:3],7,6/2V84[16:3],3,2,6,
5x/3x,{16}7,5,{8}6-1[8:1],2-5[8:1],6-3[8:1],2,6,2,
{8}7x/1x,{16}8,8,{8}3V52[16:3],2,3/7V15[16:3],6,7,3,
{16}2,8,5,6,1,7,4,5,{24}3bx,2bx,1bx,7bx,6bx,5bx,{32}E5/E6/B6/B5/E4/B4/B3,C,E1f,
