&title=Rise of the World
&artist=cosMo@暴走P
&first=0.05
&lv_5=14+
&des_5=F↑urple
&inote_5=(212)
{16},,,,
,,,,
,,,,
,,,,
{16}5/4bxh[1:2],,,,
,,,,
8,,,,
,,,,
{32}E7,B6,B5,B4,,,,,
{16},,,,
3,,,,
,,,,
{16}5h[4:7],,,,
,,,,
1,,,,
,,,,
{32}E3,B3,B4,B5,,,,,
{16},,,,
6,,,,
4,,,,
{16}4/3bh[1:2],,,,
,,,,
5,,,,
,,,,
{32}E6,B6,B7,B8,,,,,
{16},,,,
1,,,,
,,,,
{16}4h[4:7],,,,
,,,,
8,,,,
,,,,
{32}E2,B2,B3,B4,,,,,
{16},,,,
5,,,,
3,,,,
{16}4/2bh[2:1],,,,
,,,,
4h[2:1],,,,
,,,,
{32}B4,B3,B2,E2,,,,,
{16},,,,
8,,,,
,,,,
{16}7h[2:1],,,,
,,,,
5h[2:1],,,,
,,,,
{32}B5,B6,B7,E8,,,,,
{16}4,,,,
3,,,,
2b/6b,,,,
{16}1bxh[#1.132075]/5bxh[#1.132075],,,,
,,,,
,,,,
,,,,
(202)
{32},E2`E6,B2/B6,B3/B7,E4/E8,,,,
{16},,,,
{12},,7/3,
,5/1,,
(192)
{32}5b/1bs5b[2.5687##0.3297],2/6,3/7,4h[#2.286659]/8h[#2.286659],,,,,
{16},,,,
,,,,
,,,,
(182)
{16},,,,
,,,,
,,,,
,,,,
{16},,,,
(212)
{16},,,,
Ch[4:1],,,,
,,,,
8,,,7,
{16},,6,,
5bh[8:1]/4h[4:1],,,,
5,,4/6h[4:1],,
,,4,,
{16}5/6,,,,
7,6,5,4,
1,2,3,4,
7,,7,,
{16}6x/8x,,,,
4bh[8:1]/5h[4:1],,,,
4,,5/3h[4:1],,
,,5,,
{16}4/3,,,,
2,3,4,5,
8,7,6,5,
2,,2,,
{16}3x/1x,,,,
5b-3[8:1],,6-1[8:1],,
5x,,6x,,
,,2,,
{16}3/8x,,,,
7,6,5,4,
1,2,3,4,
7-5[8:1],,8,,
{16}1/7x,,,,
4-6[8:1],,3-8[8:1],,
4x,,3x,,
,,7,,
{16}6/1x,,,,
2,3,4,5,
8,7,6,5,
2,3,4,5,
{16}6,7,8,1,
6b,,6,5,
7,,3,4,
2,,7,,
{16}6/5V31[4:1],,,,
5x/1V75[4:1],,,,
5V71[4:1],,,,
1,,2,,
{16}3<6[4:1],,,,
6<1[4:1],,,,
1>4[4:1],,,,
4,,5,,
{16}6<1[8:1],,,,
6/5,,4-7[8:1],,
,,4/3,,
{12}1,2,3,
{12}5x/4x,6x,7x,
{16}8x-6[8:1],,1,,
2/8x,,,,
4-2[8:1],,5,,
{16}6/4x,,,,
1-3[8:1],,8,,
7/1x,,6,,
5-2[8:1],,4,,
{16}5xq8[2:1],,,,
1h[2:1],,,,
,,,,
,,,,
{16}4>1[8:1],,5,,
6/4<7[8:1],,,,
4,,8,,
8,,2/6,,
{16}8,1/7,2/6,3/5,
4b-8[4:25],,,,
,,,,
,,,,
{16}E2,,E3,,
E4,,,,
,,,,
E6/E5/B5,,,,
{16},,,,
E3/E4/B3,,,,
,,,,
,,,,
{16}E7,,E6,,
E5,,,,
,,,,
E5/D5,,,,
{16},,,,
E6,,,,
,,,,
E4/B3,,,E6,
{16},,E7,,
B1/B2,,,,
,,,,
B5/B4,,,,
{16},,,,
C,,,,
,,,,
E7,,E6,,
{16}E2,,E3,,
Ch[4:1],,,,
,,,,
3x,2x,1x,8x,
{16}4,5,6,7,
8b/1h[8:1],,,,
8/2h[8:1],,,,
8/1h[8:1],,,,
{16}8/3h[8:1],,7,,
6h[8:1]/2-4[8:1],,,,
6h[8:1],,,,
5h[8:1]/1-4[8:1],,,,
{16}5h[8:1],,,,
1/8h[8:1],,,,
1/7h[8:1],,,,
1/8h[8:1],,,,
{16}1/6h[8:1],,2,,
3h[8:1]/7-5[8:1],,,,
3h[8:1],,,,
4h[8:1]/8-5[8:1],,,,
{16}4h[8:1],,,,
3-8[8:1],,4,,
5,,6,,
7-4[8:1],,8,8,
{16}7,,1,,
2-5[8:1],,1,,
2,,8,,
7-4[8:1],,6,,
{16}5/7x,,,,
2,,3/4,,
5,,6,,
7/5,,4,,
{16}3/5,,4b/7bh[4:1],,
,,3,4,
1,,6,5,
8-5[8:1],,7,,
{16}1/8,,,,
Cf/1b>5b[4:1],,,,
5V38[4:1],,,,
,,8,,
{16}6<2b[4:1],,,,
2<6[4:1],,,,
3,,4-8[8:1],,
,,4,,
{16}5,,,,
7<3b[4:1],,,,
3V58[4:1],,,,
,,8,,
{16}2<6[4:1],,,,
6<2b[4:1],,,,
5,,4-8[8:1],,
,,4,,
{16}3,,2,,
1V75b[4:1],,,,
5V31[4:1],,,,
,,7x,,
{16}8V64b[4:1],,,,
4V28[4:1],,,,
8V64[4:1],,,,
,,2x,,
{16}1>4[4:1],,,,
4<7b[4:1],,,,
7V52[4:1],,,,
,,1x,,
{16}8<2[4:1],,,,
8/1,,1,,
1,,1,,
2/1xh[8:3],3,4,5,
{16}6,7,8,,
2b,4,3,,
6,5,7,,
3,4,3,5,
{16}2,4,2,6,
3h[8:1],,7,4h[8:1],
,,8,5,
E8,E7,E6,E5,
{16}1/E4,,1,,
4x,5,6,7,
3x,4,5,6,
2x,3,4,5,
{16}6x/2,,2,,
4/2,,4,,
5/7,,5,,
4-7[8:1],3,2,,
{16}8h,,,,
2,8,2,8,
3,6,3,6,
4,,3,,
{16}2/4,,3,,
5,6,7h[8:1],,
3,4,5h[8:1],,
1,2,3,4,
{16}5,,1/5,,
3,4,2/5,,
6,5,7/4,,
2,4,,4,
{16}3,,2/5,,
1,7,1,7,
5,6,5,6,
3,4,2,5,
{16}4,6,1,7,
{32}8bz4[1:3]*-5[1:3],1,2,3,,,,,
{16},,,,
,,,,
{16},,,,
,,,,
,,,,
,,,,
{16},,,,
,,,,
,,,,
,,,,
{16},,,,
,,,,
,,,,
5h[4:1]/4h[4:1],,,,
{16},,,,
6/5b,,6,,
6/8,,6,,
3/4,,3,,
{16}3/1,,3,,
8b,,1/6,,
2/5,,3/4,,
1,,8/3,,
{16}7/4,,6/5,,
{24}2/1b,3,4,5,,,
7/8b,6,5,4,,,
{32}1,2,3,4,5,6,7,8,
{32}1,2,3,4,5,6,7,8,
{16}1/5w1[4:1],,,,
,,,,
,,,,
{32}7,6,5,4,3,2,1,8,
{16}7-4[8:1]/3-1-6[4:1],,,,
A3f/7bV13[4:1],,,,
,,4,,
{16}4,5,6,7,
8,,2,1,
3,,7,8,
6,,2,3,
{16}4/5,,5,,
6h[8:1]/4h[8:1],,,7h[8:1]/5h[8:1],
,,8,,
5/8V64[4:1],,,,
{16}4,,2,,
8h[8:3],,,,
,,,,
4/8,5,6,7,
{16}8/1,2,3,4,
5,,7,5,
6,,3,5,
4h[8:1],,6,5h[8:1],
{16},7,5,,
8,,8,5,
7,,1,4,
2,,8,7,
{16}1,6,2,5,
3/4b-1[8:1],,,,
4/5,,6,,
7<4[8:1],,,,
{16}7/1-5[8:1],,2,,
1b<6[8:1],,,,
1b>4[8:1],,,,
1b,,,,
{32}7,6,5,4,3,2,1,8,
{16}7-4[8:1]/3-1-6[4:1],,,,
A3f,,,,
,,4,,
{16}4,5,6,7,
8,,2,1,
3,,7,8,
6,,2,3,
{16}4/5,,5,,
6h[8:1]/4h[8:1],,,7h[8:1]/5h[8:1],
,,8,,
5/8V64[4:1],,,,
{16}4,,2,,
1-6[8:1]*-4[8:1],,,,
1,,,,
1b,1b,1b,1b,
{16}1b,,,,
5b/7b,,6,,
4/2,,3,,
5/6,,5/7h[8:1],,
{32}8b,1,2,3,4,,,,
{16}8/7,,6,,
1/2,,3,,
8/7,,8/6h[8:1],,
{32}5b,4,3,2,1,,,,
{16}7,8,7,8,
7,8,7,8,
5,1,5,1,
{16}5,1,5,1,
5,6,7,8,
2,3,4,5,
{32}8,7,6,5,4,3,2,1,
{32}8,7,6,5,4,3,2,1,
{16}8b/4b,,,,
{12}7,7,7,
{16}6/8,,,,
{12}3,3,3,
{16}2/4,,,,
{12}5,5,5,
6/4,3,2,
{12}5/1,6,7,
{16}8b/4b,,,,
{12}2,2,2,
{16}3/1,,,,
{12}6,6,6,
{16}7/5,,,,
{12}2,3,4,
8/5,7,6,
{12}1/5,2,3,
{96}7b/4,,,6,,,5,,,,,,,,,,3,,,,,,,,
{12},2,,
{96}1b/5,,,2,,,3,,,,,,,,,,6,,,,,,,,
{12},7,,
{96}4/7b,,,6,,,5,,,,,,,,,,3,,,,,,,,
{12},2,,
{96}1b/5,,,2,,,3,,,,,,,,,,6,,,,,,,,
{12},7,7,
{96}1b,,,2,,,3,,,,,,,,,,5,,,,,,,,
{12}4,7,,
{96}8b,,,7,,,6,,,,,,,,,,4,,,,,,,,
{12}5,2,,
7,8,5,
2,4,3,
{16}1h[8:1],,,3h[8:1]/7h[8:1],
{16},,6/4,,
{12}7b,5,6,
2,4,3,
8,5,6,
{12}1,4,3,
7,5,5,
2,4,4,
6,5,7,
{12}3,4,2,
7b,8,7,
{24}4,5,4,,5,,
{12}2b,1,2,
{24}5,4,5,,4,,
{12}6/1b,7,8,
1/4b,2,3,
4/7b,5,6,
{16}7/2b,,,,
{12}1bh,7,3h,
1,5h,7,
3h,5,1h,
{24}7,6,5,4,,,
{12}8bh,2,6h,
8,4h,2,
6h,4,8h,
{24}2,3,4,5,,,
{12}8b,8,8,
6,2,8,
4b,4,4,
{12}6,2,4,
{24}8b,7,6,5,,,
1b,2,3,4,,,
7b/8,6,5,4,,,
{24}2b/1,3,4,5,,,
8xh[12:5],,,1,2,3,
4,5,6,7,,1,
2xh[12:5],,,1,8,7,
{24}6,5,4,3,,1,
8xh[12:5],,,1,2,3,
4,5,6,7,,1,
2xh[12:5],,,1,8,7,
{24}6,5,4,3,,1,
8xh[2:1],,,4,5,6,
7,,1,2,3,4,
5xh[2:1],,,2,1,8,
{24}7,6,,4,3,2,
1xh[2:1],,,6,5,4,
3,2,,8,7,6,
{16}5v8[8:1]*v2[8:1],,,,
{16}5,,,,
7b,4,6,3,
5,2,4,1,
6b,3,5,2,
{16}4,1,3,8,
4b,5,6,7,
8/4,5,6,7,
4/8-4[8:1],5/1,6/2,7/3,
{16}8b/4,,,,
1b,8,3b,6,
2b,7,4b,8,
2b,1,3b,7,
{16}4b,8,2b,7,
5b,6,5,6,
2,1,2,1,
{32}2b,3,4,5,2b,3,4,5,
{32}8b,7,6,5,8b,7,6,5,
{16}8bxh[4:1],,,,
{12}7,6,5,
8,1,2,
{16}3/4-7[8:1],,,,
4x/1xh[4:1],,,,
{12}8,1,7,
3,5,4,
{12}7,5,8,
{16}5b/1bw5[2:3],,,,
,,,,
,,,,
{16},,,,
,,,,
,,,,
,,,,
{16},,,,
4,6,4,6,
3,7,3,7,
2,8,2,8,
{16}1,1,1,1,
{24}2,3,4,5/6,7,8,
1/4,3,2,1/8,7,6,
{32}5/2,3,4,5,6,7,8,1,
{32}2,3,4,5,6,7,8,1,
{16}2b-7[16:1]/6b-3[16:1],,,2b/6b,
&lv_7=14?
&des_7=F↑urple
&inote_7=
(212){4},,,,{2}4>5[0.566##1.4151],
5,
B6/B7/B8,1,
5<4[0.566##1.4151],4,
B3/B2/B1,8h[4:1],
4>5[0.566##1.4151],5,
B6/B7/B8,1,
5<4[0.566##1.4151],4,
B3/B2/B1,8h[4:1],
8/4>5[0.566##1.4151],5/4,
B6/B7/B8,1,
1/5<4[0.566##1.4151],4/5,
{4}B3/B2/B1,B5,B6,B7,
{2}8<5[0.566##1.1601]/1>4[0.566##1.1601],8/1,
(202){3}D7/D3,{6},,3/6,2/7,
(192){1}1h[#1.90934]/8b<2[1.9093##0.6593],
(182),
{4}Ch[4:1],(212),{2}1xh[4:1]/8xh[4:1],
{16}7/2,,,5/4,,,{8}6/3,2,1,8,7v5[0.4245##0.283],
,6x,{4}7x,{16}4,3,2,1,5,6,7,8,
1,2,3,4,{4}5h[8:1],{8}7,8,1,2v4[0.4245##0.283],
,3x,{4}2x,{16}5,6,7,8,4,3,2,1,
8,7,6,5,{4}4h[8:1],{8}2,8,1,7v5[0.4245##0.283],
,5x,{4}7x,{16}4,3,2,1,5,6,7,8,
1,2,3,4,{4}5h[8:1],{8}7,1,8,2v4[0.4245##0.283],
,4x,{4}2x,{16}5,6,7,8,4,3,2,1,
8,7,6,5,{4}4h[8:1],{8}5x/6x,{16}3,4,{8}2h[16:1],{16}6,5,
{4}7h[4:1],8,{16}1,2,3,4,5,6,7,8,
{4}1h[4:1],2,{8}3/4,6/5,5/4,3/4,
{4}2h[4:1],1,{16}8,7,6,5,4,3,2,1,
{4}8h[4:1],7,{8}7-4[8:1],6,{4}7,
{8}2-5[8:1],3,{4}2,{8}6-1[8:1],7,{4}6,
{8}3-8[8:1],2,{4}3,{2}4>1[4:1]/5<8[4:1],
{8},,7/2,3/6,5h[4:1]/4h[4:1],,,8/1,
5/4,3/6,7/2,8/1,{2}8b<8[1:2],
{8},,B8,B7,{2}B6,
E5,8>8[1:2],
{8},,B1,B2,{2}B3,
E5,8<8[1:2],
{16}B5,,,B4,,,{8}B3,{2}B2,
C,8w4[8:9],
{16},,,,,,,,,,,,,,,,4,
3,2,1,8,7,6,5,{4}4bxh[8:1],4h[8:1],
{16}3h[8:1],,,7,{8}8/4h[8:1],5,{4}3h[8:1]/1h[8:3],3h[8:1],
7h[8:3]/2h[8:1],3h[8:1],5bxh[8:1],5h[8:1],
{8}6h[8:1],{24}2,1,,{12}5h[8:1],4,,{4}6h[8:1]/8h[8:3],6h[8:1],
2h[8:3]/7h[8:1],6h[8:1],1bxh[8:1]/8bxh[8:1],1h[8:1],
{16}2h[8:1],,,6,{8}5/1h[8:1],7,2h[8:1],8,3h[8:1],7,
8/2h[8:1],7,6/3h[8:1],5,{4}1bxh[8:1]/8bxh[8:1],8h[8:1],
{8}7h[8:1],2,4/8,2/6,{16}3,4,{8}3,{16}6,5,{8}6,
{16}8bx,7,{8}6,{16}1bx,2,{8}3,{4}8<2[8:5],{8}1,2,
,2,{4}1h[8:1],1>7[8:5],{8}8,7,
,7,{4}8h[8:1],1v6>2[8:5],{8}8,7,
,8,{4}7h[8:1],8v3<7[8:5],{8}1,2,
,1,{4}2h[8:1],1p6>2[8:5],{8}8,7,
,7,8,7,{4}8q3<7[8:5],{8}1,2,
,2,1,2,{4}1pp6>2[8:5],{8}8,7,
,7,8,7,{4}8qq3<7[8:5],{8}1,2,
,2,1,2,{16}8,1,2,3,4,5,6,7,
{4}8h[8:1],{16}1,2,3,4,5h[8:1],,,8/2,,,{8}3/7,
{16}5,6,7/3,2,{8}1,5,{16}1,2,3,4,8,7,6,5,
1,2,3,4,8,7,6,5,{8}4,8/2,{16},2/8,,,1h[4:1],
,,8,{4}7,{16}4,3,2,1,5,6,7,8,
,,2,1,{8}8,6,{16}1,2,3,4,8,7,6,5,
1,2,3,4,5,6,7,8,{8}4x,1/7,{4}1/7,
{16}8h[4:1],,,2,{8}2,1/7,{16}4,3,2,1,5,6,7,8,
4,3,2,1,8,7,6,5,{2}1bx<2[2:7],
B1/B2,B8/B7,
{64}B6,B5,{4},{16},,,{32},{2}B3/B4,
{4},B2/B3,,,{2}Cfh[4:1],
{8}6,6/5,3,3/4,
7,7/8,2,2/1,5b/6b,7/4,3/8,1/2,
3b/4b,2/5,6/1,8/7,{32}6bx,5,4,3,,,,,2bx,1,8,7,,,,,6bx,
5,4,3,,,,,2bx,1,8,7,,,,,{8}E8,E2,E7,E3,
E6,E4,{4}C,1h[16:3]/8h[16:3],Cf/B5/B4/B2/B3/B7/B6,
{16},,,,3,4,5,6,{8}7-4[0.1415##0.1415],{16}4,3,{8}2-5[0.1415##0.1415],{16}5,6,
{8}7-4[0.1415##0.1415],{16}4,3,{4}2<7[0.1415##0.2123],{16}5h[16:3],,,4h[16:3],,,{8}3,
3h[1:1],,,6,{2}6h[8:3],
{16}6,5,4,3,2,1,8,7,{8}6,{16}8,6,{4}8h[8:1],
{16}4h[16:3],,,3h[16:3],,,{8}2,3,{16}1,3,{4}1h[8:1],
1h[8:1]/5h[8:1],3h[8:1]/7h[8:1],{8}5bh[4:1]/1bh[4:1],,,8/4,
{2}2h[4:1]/6h[4:1],{16}6,5,{8}6,{16}3,4,{8}3,
{16}7bx,6,{8}5,{16}2bx,3,{8}4,{4}8bh[16:3]/1bh[16:3],Cf/B4/B5/B7/B6/B2/B3,
{16},,,,6,5,4,3,{8}2-5[0.1415##0.1415],{16}5,6,{8}7-4[0.1415##0.1415],{16}4,3,
{8}2-5[0.1415##0.1415],{16}5,6,{4}7>2[0.1415##0.2123],{16}4h[16:3],,,5h[16:3],,,{8}6,
6h[8:7],,,3,{2}3h[8:3],
{16}1x,1x,1x,1x,{4}1x,{8}6h[8:1],7,3h[8:1],2,
1h[8:1],5,8h[8:1],4,3/2h[8:1],4,6/7h[8:1],5,
{16}4,3,2,1,8,7,6,5,4,5,3,6,2,7,1,8,
1,8,2,7,3,6,4,5,6,7,8,1,2,3,4,5,
{32}6x,7x,8x,1x,2x,3x,4x,5x,6x,7x,8x,1x,2x,3x,4x,5x,{4}6bxh[16:3],{12}2,2,2,
{4}8/4,{12}2,2,2,{4}7/5,{12}2,2,2,
{24}3,4,{12}5,{24},,1,8,{6}7,8/6,{12},7,7,7,
{4}1/5,{12}7,7,7,{4}2/4,{12}7,7,7,
{24}6,5,{12}4,{24},,8,1,{6}2,{24}8x/7bx,1,{12}2,{6}6,5,
{24}1x/8bx,2,{12}3,{6}7,6,{24}2x/1bx,3,{12}4,{6}8,7,
{24}3x/1bx,4,{12}5,{6}7,{12}5,5,{24}1x/2bx,8,{12}7,{6}3,4,
{24}8x/1bx,7,{12}6,{6}2,3,{12}7/8bx,1,6,2,5,3,
{16}4h[8:1],,,3h[8:1]/5h[8:1],,,{8}2/6,{12}3h[12:1],7,2h[12:1],6,3h[12:1],5,
1h[12:1],6,3,7,8,1,6h[12:1],2,7h[12:1],3,6h[12:1],4,
8h[12:1],3,6,2,1,8,6b,2h[12:1],7,3h[12:1],6,4h[12:1],
8b,3h[12:1],6,2,1,8,3bx,7h[12:1],2,6bxh[12:1],3,5h[12:1],
1bx,6h[12:1],3,7bx,8,1,2,4,6,8,2,4,
6,8,2,{24}4x,5x,{12}4x,3,7,5,3,1,7,5,
3,1,7,{24}5x,4x,{12}5x,6,{8}2b/7b,3/6,{24}1x,8x,{12}1x,3,
{8}2b/7b,8/1,{24}5x,4x,{6}5x,{24}8bx,7,6,5,,,1bx,2,3,4,,,1bx,
8,7,6,,,8bx,1,2,3,,,{2}5h[8:3]/6<3[0.1415##0.283],
6h[8:3]/7>4[0.1415##0.283],7h[8:3]/8>5[0.1415##0.283],
8h[8:3]/1>6[0.1415##0.283],1h[8:3]/2>7[0.1415##0.283],
2h[8:3]/3<8[0.1415##0.283],3h[8:3]/4<1[0.1415##0.283],
4h[8:3]/5<2[0.1415##0.283],{8}5h[8:3],{16}6,7,8,1,2,3,
{8}6h[8:3],{16}7,8,1,2,3,4,{8}7h[8:3],{16}8,1,2,3,4,5,
{8}8h[8:3],{16}1,2,3,4,5,6,{8}1bh[8:3],{16}2,3,4,5,6,7,
{8}2bh[8:3],{16}3,4,5,6,7,8,{8}3bh[8:3],{16}4,5,6,7,8,1,
{8}4bh[8:3],{16}5,6,7,8,1,2,{4}3b,{12}5,3,7,
1,2,3,1,8,7,{4}6b,{12}4,6,2,
8,7h[24:1],6,8,1h[24:1],2,{2}3bpp1[0.566##1.4151]/6bqq8[0.566##1.4151],
{1},{4},,{16}1,
8,1,8,2,7,2,7,
3,6,3,6,4,5,4,5,4,3,2,1,8,7,6,5,
{32}4,3,2,1,8,7,6,5,4,3,2,1,8,7,6,5,{6}4b,1b/7b,
E
